Перейти из форума на сайт.


Система IP-видеонаблюдения "Линия". Скачать бесплатную демо-версию для 16 камер. НовостиФайловые архивы
ПоискАктивные темыТоп лист
ПравилаКто в on-line?
Вход Забыли пароль? Первый раз на этом сайте? Регистрация
Компьютерный форум Ru.Board » Общие » Музыка и Кино » Музыка в lossless форматах. Часть 5

Модерирует : PrincesskaMarishka, ULer

 Версия для печати • ПодписатьсяДобавить в закладки
Страницы: 1 2 3 4 5 6 7 8 9 10 11 12 13 14 15 16 17 18 19 20 21 22 23 24 25 26 27 28 29 30 31 32 33 34 35 36 37 38 39 40 41 42 43 44 45 46 47 48 49 50 51 52 53 54 55 56 57 58 59 60 61 62 63 64 65 66 67 68 69 70

Открыть новую тему     Написать ответ в эту тему

PrincesskaMarishka



Moderator
Редактировать | Профиль | Сообщение | Цитировать | Сообщить модератору
Данная тема предназначена для публикации записей  
различных жанров и направлений в lossless форматах

 
Что такое "lossless"?

Цитата:
Сжатие без потерь (англ. lossless data compression) — метод сжатия информации, при использовании которого закодированная информация может быть восстановлена с точностью до бита. При этом оригинальные данные полностью восстанавливаются из сжатого состояния.
 
Подробнее...
 
Конвертирование из формата в формат обсуждаем здесь, обсуждение и проблемы рипа с CD - здесь
 
Сравнение lossless кодеков
 
Hydrogenaudio.org
 
Поисковик (BitTorrent, файлообменники, eMule)
 
Lossless.ru
 
Архив
 
Часть 1
Часть 2
Часть 3
Часть 4
 
Свою благодарность релизерам высказываем только в ПМ!

 
Моя коллекция во FLAC формате облако Мейл.ру
 
Скачивайте

Всего записей: 5152 | Зарегистр. 13-06-2001 | Отправлено: 20:12 16-06-2012 | Исправлено: Patrick, 05:04 11-05-2016
AMPIRUTYUN



Silver Member
Редактировать | Профиль | Сообщение | Цитировать | Сообщить модератору
Spagna - No Way Out (1991)
 
   
 

 
Performer: Spagna
Album: No Way Out
Label: Epic/Sony Music Entertainment. Made in Holland.
Catalog #: 468621 2
Style: Italo-Disco, Synth-pop  
Year: 1991
Format: FLAC (image + .cue)
Bitrate: lossless
Covers: in archive
Amount of tracks: 10
Size ZIP: ~ 431 mb
 
••• Log EAC + Log auCDtect + Dynamic Range Meter + Spectrum •••
 

 
Tracklist:
====================
01. Spagna - Only Words [4:39]
02. Spagna - You Break Into My Heart [4:06]
03. Spagna - No Way Out [4:34]
04. Spagna - Love At First Sight [4:51]
05. Spagna - Me And My Love [4:35]
06. Spagna - I Don't Wanna Fall In Love [3:54]
07. Spagna - There's A Love [4:20]
08. Spagna - Number One [4:53]
09. Spagna - I Miss You [4:23]
10. Spagna - I Only Dance With You [4:21]
--------------------------
Total time: [44:34]
 
 
Credits:
=================
Artwork By [Graphic Elaboration] – Studio Vertigo
Executive Producer – Larry Pignagnoli (tracks: 1 to 5), Marco Marati (tracks: 1 to 5)
Other [Management] – Marco Marati
Performer, Arranged By – P. Steffan (tracks: 6 to 10)
Photography – Alberto Tolot
Producer – Theo Spagna* (tracks: 1 to 5), Larry Pignagnoli (tracks: 1 to 5), Marco Marati (tracks: 6 to 10), P. Colasanti (tracks: 6 to 10)
Written By – A. Pignagnoli (tracks: 1 to 5), I. Spagna, P. Donaggio (tracks: 6 to 10), P. Steffan (tracks: 6 to 10), R. Page (tracks: 1 to 5)
 
Notes:
=================
No More Words:
Original Soundtrack TV Series "Scoop"
Original Publisher Emergency Music Italy S.r.l.  
 
(p) 1991 Sony Music Entertainment (Italy) S.p.A.
(с) 1991 Sony Music Entertainment (Italy) S.p.A.
 
Disc made in Austria
Printed in Holland
 
   
Скачать CD | Download CD
password: aheron

Всего записей: 2444 | Зарегистр. 01-12-2009 | Отправлено: 23:19 15-11-2015
KroMvELo



BANNED
Редактировать | Профиль | Сообщение | Цитировать | Сообщить модератору
Подробнее...
 Seal - 6: Commitment (2010)
 
Ге́нри Олу́шеган Адео́ла Сэ́мюэл (англ. Henry Olusegun Adeola Samuel), более известный под псевдонимом Сил (англ. Seal; род. 19 февраля 1963, Лондон) — британский певец и автор песен, обладатель трёх музыкальных премий «Грэмми» и нескольких наград Brit Awards. Известность приобрёл в 1990-х годах, выпустив ставшие тогда же популярными композиции «Killer», «Crazy» и «Kiss from a Rose». Бывший муж топ-модели из Германии Хайди Клум.
Альбом Commitment, иногда известный как Seal 6, является седьмым студийным альбомом британской певца.
 EAC LOG
Exact Audio Copy V1.0 beta 6 from 9. April 2015
 
EAC extraction logfile from 20. June 2015, 20:35
 
Seal / 6: Commitment
 
Used drive : MATSHITADVD-RAM UJ8E2 S Adapter: 1 ID: 0
 
Read mode : Secure
Utilize accurate stream : Yes
Defeat audio cache : Yes
Make use of C2 pointers : No
 
Read offset correction : 103
Overread into Lead-In and Lead-Out : No
Fill up missing offset samples with silence : Yes
Delete leading and trailing silent blocks : No
Null samples used in CRC calculations : Yes
Used interface : Native Win32 interface for Win NT & 2000
 
Used output format : User Defined Encoder
Selected bitrate : 128 kBit/s
Quality : High
Add ID3 tag : Yes
Command line compressor : C:\Program Files (x86)\Exact Audio Copy\Flac\flac.exe
Additional command line options : -V -8 -T "Date=%year%" -T "Genre=%genre%" %source%
 
 
TOC of the extracted CD
 
Track | Start | Length | Start sector | End sector  
---------------------------------------------------------
1 | 0:00.00 | 3:29.36 | 0 | 15710  
2 | 3:29.36 | 4:20.40 | 15711 | 35250  
3 | 7:50.01 | 4:10.73 | 35251 | 54073  
4 | 12:00.74 | 4:23.50 | 54074 | 73848  
5 | 16:24.49 | 4:03.46 | 73849 | 92119  
6 | 20:28.20 | 3:37.32 | 92120 | 108426  
7 | 24:05.52 | 4:34.22 | 108427 | 128998  
8 | 28:39.74 | 3:22.62 | 128999 | 144210  
9 | 32:02.61 | 4:28.72 | 144211 | 164382  
10 | 36:31.58 | 3:59.41 | 164383 | 182348  
11 | 40:31.24 | 4:04.33 | 182349 | 200681  
 
 
Range status and errors
 
Selected range
 
Filename C:\Temp\Seal - 6- Commitment.wav
 
Peak level 100.0 %
Extraction speed 2.5 X
Range quality 100.0 %
Test CRC 2B09F338
Copy CRC 2B09F338
Copy OK
 
No errors occurred
 
 
AccurateRip summary
 
Track 1 accurately ripped (confidence 128) [47072F11] (AR v2)
Track 2 accurately ripped (confidence 129) [E1D50DA1] (AR v2)
Track 3 accurately ripped (confidence 127) [5D4C47BC] (AR v2)
Track 4 accurately ripped (confidence 128) [DCDAC023] (AR v2)
Track 5 accurately ripped (confidence 127) [24726876] (AR v2)
Track 6 accurately ripped (confidence 127) [A0FD5A4E] (AR v2)
Track 7 accurately ripped (confidence 128) [C5CD5EF1] (AR v2)
Track 8 accurately ripped (confidence 128) [0FF52F72] (AR v2)
Track 9 accurately ripped (confidence 128) [7CE0DA8C] (AR v2)
Track 10 accurately ripped (confidence 128) [AF65E2D1] (AR v2)
Track 11 accurately ripped (confidence 128) [E83414AE] (AR v2)
 
All tracks accurately ripped
 
End of status report
 
---- CUETools DB Plugin V2.1.6
 
[CTDB TOCID: 3T2Q8iktI8iW9_pkL.D56parsK8-] found
Submit result: 3T2Q8iktI8iW9_pkL.D56parsK8- has been confirmed
Track | CTDB Status
1 | (98/98) Accurately ripped
2 | (98/98) Accurately ripped
3 | (98/98) Accurately ripped
4 | (98/98) Accurately ripped
5 | (98/98) Accurately ripped
6 | (98/98) Accurately ripped
7 | (98/98) Accurately ripped
8 | (98/98) Accurately ripped
9 | (98/98) Accurately ripped
10 | (98/98) Accurately ripped
11 | (98/98) Accurately ripped
 
 
==== Log checksum 171C8F4C98DCFE4D29569A1FD52EAC9C5A44B71A42A6A39D3D2EC4A018CEBA81 ====
 auCDtect
-----------------------
 
DON'T MODIFY THIS FILE
 
-----------------------
 
PERFORMER: auCDtect Task Manager, ver. 1.6.0 RC1 build 1.6.0.1
Copyright (c) 2008-2010 y-soft. All rights reserved
http://y-soft.org
 
ANALYZER: auCDtect: CD records authenticity detector, version 0.8.2
Copyright (c) 2004 Oleg Berngardt. All rights reserved.
Copyright (c) 2004 Alexander Djourik. All rights reserved.
 
 
FILE: Seal - 6- Commitment.flac
Size: 310286368 Hash: B4D7A5416BECEF4D6A0816ED1CC82916 Accuracy: -m0
Conclusion: CDDA 100%
Signature: 628F2146107F3B0631BF2AB8A272D5130B499840
 
 
Направление, стиль: Soul, R&B
Исполнитель: Seal
Альбом: Commitment
Год издания: 2010
Страна: UK
Издатель (лейбл): Reprise Records
Продолжительность: 00:44:36
Формат: EAC (Image, Cue, Log, Covers)
Параметры: FLAC
Треклист:
 
01.Seal - If I'm Any Closer (3:29)
02.Seal - Weight of My Mistakes (4:21)
03.Seal - Silence (4:11)
04.Seal - Best of Me (4:24)
05.Seal - All for Love (4:04)
06.Seal - I Know What You Did (3:37)
07.Seal - The Way I Lie (4:34)
08.Seal - Secret (3:23)
09.Seal - You Get Me (4:29)
10.Seal - Letting Go (4:00)
11.Seal - Big Time (4:04)
 
Размер файлов: 308.75 Мб
 
Скачать:
 
http://rusfolder.com/43838780 [/more]

Всего записей: 36 | Зарегистр. 08-11-2015 | Отправлено: 23:42 15-11-2015 | Исправлено: KroMvELo, 11:35 19-11-2015
Alfab

Silver Member
Редактировать | Профиль | Сообщение | Цитировать | Сообщить модератору
Seal - 6: Commitment (2010)
 

Цитата:
Формат: EAC (Image, Cue, Log, Covers)
Размер файлов: 308.75 Мб
 
Скачать:
http://rusfolder.com/43838780

Перезалил, загрузка не "Через менеджер загрузки", а по прямой.

Всего записей: 2097 | Зарегистр. 13-11-2015 | Отправлено: 05:09 16-11-2015 | Исправлено: Alfab, 05:10 16-11-2015
RunawayTrane



Advanced Member
Редактировать | Профиль | Сообщение | Цитировать | Сообщить модератору
Tony Williams Lifetime - Believe It
JAZZ+FUNK | FLAC | CUE | LOG | COVERS | 337MB | 44:16
Columbia 1975

 
 
   
 
 
 
 
 
 

Цитата:
[By the time drummer Tony Williams left Miles Davis in '69, he had moved even farther away from the acoustic tradition than his former employer. His first recordings with his new band, Lifetime, were characterized by the sleeve instructions: "Play it Loud!" While the energy level was high and the music was infused with a rock and roll philosophy, it was nevertheless uncompromising and continued to push the boundaries; intense, daring and sometimes a little terrifying, the early incarnation of Lifetime was a literal barrage on the senses. By '75, Williams had signed with a new label, pieced together a New Tony Williams Lifetime, and moved in a little more conventional jazz-rock direction. But unlike so many fusion records of the time, Believe It managed to be powerful without the bombastic pyrotechnics of bands like Return to Forever. Originally available on a CD that combined it with the far less successful follow-up, Million Dollar Legs , this long out-of-print title has finally been reissued by Columbia, remastered and with two bonus tracks. Believe It features former Motown bassist Tony Newton, keyboard player Alan Pasqua and, most notably, British guitarist Allan Holdsworth, who, while already somewhat of an underground legend in his own country, had yet to make an impression in North America. Believe It changed all that, demonstrating that not only was Holdsworth a fresh new voice on his instrument, but a fine writer as well. "Fred," later re-titled "Kinder" by Holdsworth, and a staple in his repertoire for some years to come, introduces Holdsworth's unique harmonic language, with a lyrical bent that manages to be completely distinctive. And his playing style is quite simply like no other; influenced heavily by Coltrane, Holdsworth, even at this early stage in his career, is capable of sheets of sound that, punctuated by held notes and legato runs, are visceral in their impact. No less visceral, of course, is Williams himself. While peers including Billy Cobham and Lenny White gravitated towards more overblown displays of virtuosity, Williams overpowers both with his stronger sense of groove and sheer muscularity. And while he is every bit as capable of extravagant displays of technique, he always sounds more musical. Even on intense burners like the Holdsworth-penned bonus track "Letsby," he is less concerned with how many beats he can throw into a fill; and his solo over Holdsworth's power chord ostinato is the epitome of construction. For someone who moved the concept of rhythmic freedom so far forward as part of Miles' second quintet, Williams may have been the most overtly rock and roll-informed drummer of the mid-'70s fusion era. With an inherent sense of groove and honest energy that comes from compositions that are less contrived and more direct vehicles for improvisational flight, Believe It is one of the most compelling arguments for the validity of jazz-rock fusion, before the term became such a dirty word. ---John Kelman, All About Jazz

 
 
 
Tony Williams - Leader, Drums Kit
Allan Holdsworth - Guitar
Tony Newton - Bass, Vocals
Alan Pasqua - Clavinet, Piano

 
 
 
 
 
 
 
 
TRACKLISTING:
01. Snake Oil
02. Fred
03. Proto-Cosmos
04. Red Alert
05. Wildlife
06. Mr. Spock
07. Celebration
08. Letsby
 
 
 
GAVITEX
MEGA.NZ
SOLIDFILES
pw: lisalisa

Всего записей: 1206 | Зарегистр. 18-09-2008 | Отправлено: 06:57 16-11-2015
KroMvELo



BANNED
Редактировать | Профиль | Сообщение | Цитировать | Сообщить модератору
Подробнее...
Пающие трусы «Караоке» (2015)
http://s019.radikal.ru/i607/1511/bd/b41e995cda89.jpg
 
«Пающие трусы» - это женская поп-СТЕБ-группа, созданная в 2008 году в Киеве музыкантом Андреем Кузьменко (Кузьма) и музыкальным продюсером Владимиром Бебешко. Герлз-бенд «Пающие трусы» высмеивает засилие девичьих коллективов на современной сцене и насквозь фальшивый мир гламура.
 
Информация о диске
 
Направление, стиль: Pop
Исполнитель: Пающие Трусы (Пающіє Труси)
Альбом: Караоке
Год издания: 2015
Страна: Украина
Издатель (лейбл): Moon Records
Продолжительность: 00:56:21
Формат: FLAC
Параметры: FLAC (image+.cue+log) / 389 mb
 
Треклист
01. Пающие трусы - Караоке (3:27)
02. Пающие трусы - Спортивный интерес (3:13)
03. Пающие трусы - Красивый конец! (2:58)
04. Пающие трусы - Гимн Евро 2012 (3:08)
05. Пающие трусы - Москва-Колыма (3:21)
06. Пающие трусы - Гламур (3:22)
07. Пающие трусы - Мумитроль (4:01)
08. Пающие трусы - Му-му (feat. Sexy бригадир) (3:13)
09. Пающие трусы - Наха (3:20)
10. Пающие трусы - Полгода воздержания (3:08)
11. Пающие трусы - Мама-инстаграма (3:18)
12. Пающие трусы - Новогодняя (ничего не помню...) (3:32)
13. Пающие трусы - Эмо (3:37)
14. Пающие трусы - Девочки-сосульки (feat. Сергей Зверев) (3:29)
15. Пающие трусы - Романс о страстной любви (4:10)
16. Пающие трусы - Василёк (Club Remix) (5:04)
 
••• Log EAC + Log auCDtect •••
Exact Audio Copy V1.1 from 23. June 2015
 
EAC extraction logfile from 15. November 2015, 21:13
 
Пающие трусы / Караоке
 
Used drive  : MATSHITADVD-RAM UJ8E2 S   Adapter: 1  ID: 0
 
Read mode               : Secure
Utilize accurate stream : Yes
Defeat audio cache      : Yes
Make use of C2 pointers : No
 
Read offset correction                      : 103
Overread into Lead-In and Lead-Out          : No
Fill up missing offset samples with silence : Yes
Delete leading and trailing silent blocks   : No
Null samples used in CRC calculations       : Yes
Used interface                              : Native Win32 interface for Win NT & 2000
 
Used output format              : User Defined Encoder
Selected bitrate                : 128 kBit/s
Quality                         : High
Add ID3 tag                     : Yes
Command line compressor         : C:\Program Files (x86)\Exact Audio Copy\Flac\flac.exe
Additional command line options : -V -8 -T "Date=%year%" -T "Genre=%genre%" %source%
 
 
TOC of the extracted CD
 
     Track |   Start  |  Length  | Start sector | End sector  
    ---------------------------------------------------------
        1  |  0:00.00 |  3:26.73 |         0    |    15522    
        2  |  3:26.73 |  3:12.40 |     15523    |    29962    
        3  |  6:39.38 |  2:57.73 |     29963    |    43310    
        4  |  9:37.36 |  3:08.08 |     43311    |    57418    
        5  | 12:45.44 |  3:20.40 |     57419    |    72458    
        6  | 16:06.09 |  3:21.48 |     72459    |    87581    
        7  | 19:27.57 |  4:01.37 |     87582    |   105693    
        8  | 23:29.19 |  3:12.50 |    105694    |   120143    
        9  | 26:41.69 |  3:19.64 |    120144    |   135132    
       10  | 30:01.58 |  3:07.50 |    135133    |   149207    
       11  | 33:09.33 |  3:18.20 |    149208    |   164077    
       12  | 36:27.53 |  3:31.54 |    164078    |   179956    
       13  | 39:59.32 |  3:36.72 |    179957    |   196228    
       14  | 43:36.29 |  3:29.09 |    196229    |   211912    
       15  | 47:05.38 |  4:10.17 |    211913    |   230679    
       16  | 51:15.55 |  5:04.12 |    230680    |   253491    
 
 
Range status and errors
 
Selected range
 
     Filename C:\Audio\Пающие трусы - Караоке\Пающие трусы - Караоке.wav
 
     Peak level 34.3 %
     Extraction speed 4.1 X
     Range quality 100.0 %
     Test CRC A10DEC78
     Copy CRC A10DEC78
     Copy OK
 
No errors occurred
 
 
AccurateRip summary
 
Track  1  not present in database
Track  2  not present in database
Track  3  not present in database
Track  4  not present in database
Track  5  not present in database
Track  6  not present in database
Track  7  not present in database
Track  8  not present in database
Track  9  not present in database
Track 10  not present in database
Track 11  not present in database
Track 12  not present in database
Track 13  not present in database
Track 14  not present in database
Track 15  not present in database
Track 16  not present in database
 
None of the tracks are present in the AccurateRip database
 
End of status report
 
---- CUETools DB Plugin V2.1.6
 
[CTDB TOCID: DBn93wEiSPM26itqwfXApDRjfIo-] disk not present in database
Submit result: DBn93wEiSPM26itqwfXApDRjfIo- has been uploaded
 
 
==== Log checksum A300E168A6F83CF7F58A6A9CE310274144FE0ED185B821B359EB2E28FAC13A09 ====
 
###########################################################
 
-----------------------
 
DON'T MODIFY THIS FILE
 
-----------------------
 
PERFORMER: auCDtect Task Manager, ver. 1.6.0 RC1 build 1.6.0.1
Copyright (c) 2008-2010 y-soft. All rights reserved
http://y-soft.org
 
ANALYZER: auCDtect: CD records authenticity detector, version 0.8.2
Copyright (c) 2004 Oleg Berngardt. All rights reserved.
Copyright (c) 2004 Alexander Djourik. All rights reserved.
 
 
FILE: Пающие трусы - Караоке.flac
  Size: 395861494 Hash: 22D49946E44C3D70342D4B50ED7176EE Accuracy: -m0
  Conclusion: CDDA 100%
  Signature: 68197FBCCA43630949FD66762D0C5B6E89E8A0EC
 
Ссылки
 
rusfolder
 
 
video
 
Пающие трусы «Полгода воздержания»
 
Пающие трусы «Му Му»
 
Пающие трусы «Пластический Хирург»
 
Пающие трусы «Гламур» [/more]

Всего записей: 36 | Зарегистр. 08-11-2015 | Отправлено: 14:01 16-11-2015 | Исправлено: KroMvELo, 11:53 19-11-2015
AMPIRUTYUN



Silver Member
Редактировать | Профиль | Сообщение | Цитировать | Сообщить модератору
Spagna - Siamo In Due (1995)
 
   
 

 
Performer: Spagna
Album: Siamo In Due
Label: Epic. Made in Holland.
Catalog #: EPC 478541 2
Style: Italo-Disco, Synth-pop  
Year: 1995
Format: FLAC (image + .cue)
Bitrate: lossless
Covers: in archive
Amount of tracks: 10
Size ZIP: ~ 487 mb
 
••• Log EAC + Log auCDtect + Dynamic Range Meter + Spectrum •••
 
Tracklist:
=======================
01. Spagna - Davanti Agli Occhi Miei [4:31]
02. Spagna - Siamo In Due [4:42]
03. Spagna - Mai [4:07]
04. Spagna - Chiamami [3:47]
05. Spagna - Come Il Cielo [4:58]
06. Spagna - Il Cerchio Della Vita [4:49]
07. Spagna - Gente Come Noi [4:10]
08. Spagna - A Pugni Chiusi [4:53]
09. Spagna - Uno Come Te [3:38]
10. Spagna - Un Natale Che Non Finirа [4:53]
--------------------------
Total time: [44:28]
 
 
Credits:
=================
Arranged By – Angelo Valsiglio (tracks: 2, 4, 5), Fio Zanotti (tracks: 1, 3, 7, 8, 10), Gianni Salvatori (tracks: 6), Theo Spagna* (tracks: 2, 4, 5), Theo Spagna* (tracks: 9)
Executive Producer – Marco Marati
Other [Management] – Marco Marati
Producer [Artistic] – Angelo Valsiglio, Marco Marati
 
Notes:
=================
((p) & (с) 1991 Sony Music Entertainment (Italy) S.p.A.
Printed in Holland.
Disc made in Austria.
 
   
Скачать CD | Download CD
password: aheron

Всего записей: 2444 | Зарегистр. 01-12-2009 | Отправлено: 18:26 16-11-2015
KroMvELo



BANNED
Редактировать | Профиль | Сообщение | Цитировать | Сообщить модератору
Подробнее...
Ирина Богушевская «Куклы» (2015)
 
http://s019.radikal.ru/i640/1511/88/f051337dbdda.jpg
 
Ирина Богушевская — советская-российская певица, поэтесса, композитор. Создаёт музыку в стиле театрализованный джаз или кабаре-рок. Широкую известность получили альбомы, написанные в творческом союзе с Алексеем Кортневым: «Книга песен» и «Лёгкие люди». Записывала песни на стихи Александра Вертинского совместно с Александром Ф. Скляром.
Альбом Ирины Богушевской «Куклы» - это возвращение в эпоху кабаре и театрального шансона. Каждая песня Ирины – это особый мир, даже маленькая жизнь, где есть маленькое рождение, расцвет, маленькая смерть и маленькое воскрешение. Ее называют «Вертинским в юбке» и «Марлен Дитрих российской эстрады». За годы творчества Ирина Богушевская прямо на сцене пережила всё: взлёты и падения, радости побед и известия о неизлечимой болезни близких. В откровенном разговоре певица рассказала о том, как быть женщиной с лицом эльфа и характером из стали.
 
Информация о диске
 
Направление, стиль: Pop
Исполнитель: Ирина Богушевская
Альбом: Куклы
Год издания: 2015
Страна: Россия
Продолжительность: 00:50:07
Формат: FLAC
Параметры: FLAC (image+.cue+log) / 311 Мб
 
Треклист
 
01. Ирина Богушевская - Куклы (4:05)
02. Ирина Богушевская - Балчуг и Арбат (4:47)
03. Ирина Богушевская - Подруга (5:09)
04. Ирина Богушевская - Цветочек (3:11)
05. Ирина Богушевская - Ловушки (5:12)
06. Ирина Богушевская - Лузер-блюз (4:52)
07. Ирина Богушевская - Хорватский марш (2:57)
08. Ирина Богушевская - Цыган (5:11)
09. Ирина Богушевская - Жилетка (3:59)
10. Ирина Богушевская - История про дерево (3:27)
11. Ирина Богушевская - Офелия (3:09)
12. Ирина Богушевская - Блудный ангел (2:47)
13. Ирина Богушевская - Ловушки (Radio Version) (4:41)
 
••• Log EAC + Log auCDtect •••
 
Exact Audio Copy V1.1 from 23. June 2015
 
EAC extraction logfile from 15. November 2015, 22:31
 
Ирина Богушевская / Куклы
 
Used drive  : MATSHITADVD-RAM UJ8E2 S   Adapter: 1  ID: 0
 
Read mode               : Secure
Utilize accurate stream : Yes
Defeat audio cache      : Yes
Make use of C2 pointers : No
 
Read offset correction                      : 103
Overread into Lead-In and Lead-Out          : No
Fill up missing offset samples with silence : Yes
Delete leading and trailing silent blocks   : No
Null samples used in CRC calculations       : Yes
Used interface                              : Native Win32 interface for Win NT & 2000
 
Used output format              : User Defined Encoder
Selected bitrate                : 128 kBit/s
Quality                         : High
Add ID3 tag                     : Yes
Command line compressor         : C:\Program Files (x86)\Exact Audio Copy\Flac\flac.exe
Additional command line options : -V -8 -T "Date=%year%" -T "Genre=%genre%" %source%
 
 
TOC of the extracted CD
 
     Track |   Start  |  Length  | Start sector | End sector  
    ---------------------------------------------------------
        1  |  0:00.00 |  4:04.39 |         0    |    18338    
        2  |  4:04.39 |  4:47.04 |     18339    |    39867    
        3  |  8:51.43 |  5:08.57 |     39868    |    63024    
        4  | 14:00.25 |  3:11.22 |     63025    |    77371    
        5  | 17:11.47 |  5:11.67 |     77372    |   100763    
        6  | 22:23.39 |  4:51.73 |    100764    |   122661    
        7  | 27:15.37 |  2:56.40 |    122662    |   135901    
        8  | 30:12.02 |  5:10.49 |    135902    |   159200    
        9  | 35:22.51 |  3:58.40 |    159201    |   177090    
       10  | 39:21.16 |  3:26.67 |    177091    |   192607    
       11  | 42:48.08 |  3:08.59 |    192608    |   206766    
       12  | 45:56.67 |  2:47.26 |    206767    |   219317    
       13  | 48:44.18 |  4:41.31 |    219318    |   240423    
 
 
Range status and errors
 
Selected range
 
     Filename C:\Audio\Ирина Богушевская - Куклы\Ирина Богушевская - Куклы.wav
 
     Peak level 42.3 %
     Extraction speed 4.1 X
     Range quality 100.0 %
     Test CRC 3633B2A7
     Copy CRC 3633B2A7
     Copy OK
 
No errors occurred
 
 
AccurateRip summary
 
Track  1  cannot be verified as accurate (confidence 1)  [A7A64935], AccurateRip returned [26D8E6A8]  (AR v2)
Track  2  cannot be verified as accurate (confidence 1)  [3204134E], AccurateRip returned [FAF2F82E]  (AR v2)
Track  3  cannot be verified as accurate (confidence 1)  [2F0FF72F], AccurateRip returned [67E57B16]  (AR v2)
Track  4  cannot be verified as accurate (confidence 1)  [894A0507], AccurateRip returned [9F7CF0CD]  (AR v2)
Track  5  cannot be verified as accurate (confidence 1)  [B8B9BA04], AccurateRip returned [634CF86F]  (AR v2)
Track  6  cannot be verified as accurate (confidence 1)  [FF8F4980], AccurateRip returned [C323B540]  (AR v2)
Track  7  cannot be verified as accurate (confidence 1)  [99DC5DCF], AccurateRip returned [29B8459D]  (AR v2)
Track  8  cannot be verified as accurate (confidence 1)  [3A7E7727], AccurateRip returned [C02A3991]  (AR v2)
Track  9  cannot be verified as accurate (confidence 1)  [B9AB51A4], AccurateRip returned [8BDE023A]  (AR v2)
Track 10  cannot be verified as accurate (confidence 1)  [BA3B6CD3], AccurateRip returned [C760A2D2]  (AR v2)
Track 11  cannot be verified as accurate (confidence 1)  [67B8B61E], AccurateRip returned [F719AF67]  (AR v2)
Track 12  cannot be verified as accurate (confidence 1)  [5C563653], AccurateRip returned [12A2E525]  (AR v2)
Track 13  cannot be verified as accurate (confidence 1)  [A637BC67], AccurateRip returned [E2D84AD9]  (AR v2)
 
No tracks could be verified as accurate
You may have a different pressing from the one(s) in the database
 
End of status report
 
###########################################################
 
-----------------------
 
DON'T MODIFY THIS FILE
 
-----------------------
 
PERFORMER: auCDtect Task Manager, ver. 1.6.0 RC1 build 1.6.0.1
Copyright (c) 2008-2010 y-soft. All rights reserved
http://y-soft.org
 
ANALYZER: auCDtect: CD records authenticity detector, version 0.8.2
Copyright (c) 2004 Oleg Berngardt. All rights reserved.
Copyright (c) 2004 Alexander Djourik. All rights reserved.
 
 
FILE: Ирина Богушевская - Куклы.flac
  Size: 314954687 Hash: A33C194398A2EACA00BA6685E1F184A0 Accuracy: -m0
  Conclusion: CDDA 99%
  Signature: 079021D72C0266367336533A79C429EC21AD898E
 
Ссылки
 
http://rusfolder.com/44455233
http://depositfiles.com/files/yzb9aub6c
 
Ирина Богушевская. Презентация альбома «Куклы» 17.04.2015 [/more]

Всего записей: 36 | Зарегистр. 08-11-2015 | Отправлено: 20:21 16-11-2015 | Исправлено: KroMvELo, 11:27 19-11-2015
RunawayTrane



Advanced Member
Редактировать | Профиль | Сообщение | Цитировать | Сообщить модератору
Stanley Turrentine - Sugar
JAZZ | FLAC | CUE | LOG | COVERS | 371MB | 59:16
CTI 1970

 
 
   
 
 
 
 
 
 
 

Цитата:
If ever there were a record that both fit perfectly and stood outside the CTI Records' stable sound, it is Sugar by Stanley Turrentine. Recorded in 1970, only three tracks appear on the original album (on the reissue there's a bonus live version of the title track, which nearly outshines the original and is 50 percent longer). Turrentine, a veteran of the soul-jazz scene since the '50s, was accompanied by a who's who of groove players, including guitarist George Benson, Lonnie Liston Smith on electric piano, Freddie Hubbard on trumpet, bassist Ron Carter, organist Butch Cornell, and drummer Billy Kaye, among others. (The live version adds Airto, flutist Hubert Laws, drummer Billy Cobham, and organist Johnny Hammond.) The title track is a deep soul blues workout with a swinging backbeat and the rhythm section fluidly streaming through fours and eights as Benson, Hubbard, and Turrentine begin slowly and crank up the heat, making the pace and stride of the cut simmer then pop -- especially in Hubbard's solo. This is truly midnight blue, and the party's at the point of getting really serious or about to break up. By the time Benson picks up his break, full of slick, shiny, warm arpeggios, the seams are bursting and couples are edging into corners. Butch Cornell's "Sunshine Alley" is a solid, funky groover, paced by organ and double fours by Kaye. Turrentine and Hubbard stride into the melody and keep the vamp in the pocket, riding out past the blues line into a tag that just revs the thing up even further. But the big surprise is in the final track, one of the most solidly swinging, from-the-gut emotional rides of John Coltrane's "Impressions" ever taken. Turrentine is deep inside his horn, ringing out in legato with everything he has -- and it is considerable. Ron Carter's bass playing flows through the modal interludes, creating a basis for some beautifully intervallic invention by Benson and Smith by building a series of harmonic bridges through the mode to solos. It's hard to believe this is Turrentine, yet is could be no one else. If jazz fans are interested in Turrentine beyond the Blue Note period -- and they should be -- this is a heck of a place to listen for satisfaction. ~ Thom Jurek, All Music Guide

 
 
 
Stanley Turrentine - Tenor Saxophone
Freddie Hubbard - Trumpet
George Benson - Guitar
Butch Cornell - Organ
Hubert Laws - Flute
Ron Carter - Bass
Billy Kaye - Drums
Billy Cobham - Drums
Pablo Landrum - Congas
Airto Moreira - Percussion
Lonnie Liston Smith - Electric Piano
Johnny 'Hammond' Smith - Organ, Piano

 
 
 
 
 
 
 
TRACKLISTING:
1. Sugar
2. Sunshine Alley
3. Impressions
4. Gibraltar
5. Sugar [Live]
 
 
 
 
GAVITEX
MEGA.NZ
FILEFACTORY
pw: lisalisa

Всего записей: 1206 | Зарегистр. 18-09-2008 | Отправлено: 21:42 16-11-2015
KroMvELo



BANNED
Редактировать | Профиль | Сообщение | Цитировать | Сообщить модератору
Подробнее...
Blue System - Walking On A Rainbow (1987)
 
http://s017.radikal.ru/i441/1511/ae/6be6cbd55f78.jpg
 
Walking on a Rainbow дебютный альбом группы Blue System, опубликован 2 ноября 1987.
 
EAC LOG
 
Exact Audio Copy V1.1 from 23. June 2015
 
EAC extraction logfile from 27. July 2015, 15:45
 
Blue System / Walking on a Rainbow
 
Used drive : MATSHITADVD-RAM UJ8E2 S Adapter: 1 ID: 0
 
Read mode : Secure
Utilize accurate stream : Yes
Defeat audio cache : Yes
Make use of C2 pointers : No
 
Read offset correction : 103
Overread into Lead-In and Lead-Out : No
Fill up missing offset samples with silence : Yes
Delete leading and trailing silent blocks : No
Null samples used in CRC calculations : Yes
Used interface : Native Win32 interface for Win NT & 2000
 
Used output format : User Defined Encoder
Selected bitrate : 128 kBit/s
Quality : High
Add ID3 tag : Yes
Command line compressor : C:\Program Files (x86)\Exact Audio Copy\Flac\flac.exe
Additional command line options : -V -8 -T "Date=%year%" -T "Genre=%genre%" %source%
 
 
TOC of the extracted CD
 
Track | Start | Length | Start sector | End sector  
---------------------------------------------------------
1 | 0:00.00 | 4:29.40 | 0 | 20214  
2 | 4:29.40 | 5:13.25 | 20215 | 43714  
3 | 9:42.65 | 5:00.30 | 43715 | 66244  
4 | 14:43.20 | 3:25.10 | 66245 | 81629  
5 | 18:08.30 | 4:57.65 | 81630 | 103969  
6 | 23:06.20 | 4:21.17 | 103970 | 123561  
7 | 27:27.37 | 5:06.55 | 123562 | 146566  
8 | 32:34.17 | 3:29.13 | 146567 | 162254  
 
 
Range status and errors
 
Selected range
 
Filename C:\Temp\Blue System - Walking on a Rainbow.wav
 
Peak level 88.9 %
Extraction speed 2.3 X
Range quality 100.0 %
Test CRC C6656F61
Copy CRC C6656F61
Copy OK
 
No errors occurred
 
 
AccurateRip summary
 
Track 1 cannot be verified as accurate (confidence 12) [AE699B8E], AccurateRip returned [67935A83] (AR v2)
Track 2 cannot be verified as accurate (confidence 12) [0C54F3D7], AccurateRip returned [113AA518] (AR v2)
Track 3 cannot be verified as accurate (confidence 12) [6FC5DA98], AccurateRip returned [2AAB15E8] (AR v2)
Track 4 cannot be verified as accurate (confidence 12) [EB9FF301], AccurateRip returned [744FD11C] (AR v2)
Track 5 cannot be verified as accurate (confidence 12) [60974DB0], AccurateRip returned [9A9ADE52] (AR v2)
Track 6 cannot be verified as accurate (confidence 12) [F9668C68], AccurateRip returned [01F85BE2] (AR v2)
Track 7 cannot be verified as accurate (confidence 13) [8ED73D6B], AccurateRip returned [D65075EA] (AR v2)
Track 8 cannot be verified as accurate (confidence 12) [F19268B7], AccurateRip returned [6C95482B] (AR v2)
 
No tracks could be verified as accurate
You may have a different pressing from the one(s) in the database
 
End of status report
 
---- CUETools DB Plugin V2.1.6
 
[CTDB TOCID: LAij_xthtvh5rDBPfHDgyTw20Nw-] found
Submit result: LAij_xthtvh5rDBPfHDgyTw20Nw- has been confirmed
Track | CTDB Status
1 | (27/27) Accurately ripped
2 | (27/27) Accurately ripped
3 | (27/27) Accurately ripped
4 | (27/27) Accurately ripped
5 | (27/27) Accurately ripped
6 | (27/27) Accurately ripped
7 | (27/27) Accurately ripped
8 | (27/27) Accurately ripped
 
 
==== Log checksum 9E0F033021467430EDE9D8854EFB74D3AB3A1BDAB874738C445EA0B54EDF49B2 ====
 
auCDtect
-----------------------
 
DON'T MODIFY THIS FILE
 
-----------------------
 
PERFORMER: auCDtect Task Manager, ver. 1.6.0 RC1 build 1.6.0.1
Copyright (c) 2008-2010 y-soft. All rights reserved
http://y-soft.org
 
ANALYZER: auCDtect: CD records authenticity detector, version 0.8.2
Copyright (c) 2004 Oleg Berngardt. All rights reserved.
Copyright (c) 2004 Alexander Djourik. All rights reserved.
 
 
FILE: Blue System - Walking on a Rainbow.flac
Size: 250412711 Hash: 6F387AE38A6ADB44F097703992F319AE Accuracy: -m0
Conclusion: MPEG 95%
Signature: 2B145A05163989B72A6E7AFE642848D4A3CB338A
Направление, стиль: Synthpop
Исполнитель: Blue System
Альбом: Walking On A Rainbow
Год издания: 1987
Страна: Германия, Россия
Издатель (лейбл): Hansa Records
Продолжительность: 00:32:34
Формат: EAC (Image, Cue, Log, Covers)
Параметры: FLAC (926 kbps)
Источник: CD
 
Треклист:
 
01.Blue System - Gangster Love (Maxi version) (4:30)
02.Blue System - Sorry Little Sarah (Maxi version) (5:13)
03.Blue System - She's a lady (Maxi version) (5:00)
04.Blue System - Voodoo Nights (3:25)
05.Blue System - Love Me More (Maxi version) (4:58)
06.Blue System - Emanuelle (Maxi version) (4:21)
07.Blue System - Big Boys Don't Cry (Maxi Version) (5:07)
 
 
 
Размер файлов: 250.53 Мб
 
Скачать:
 
rusfolder [/more]

Всего записей: 36 | Зарегистр. 08-11-2015 | Отправлено: 22:05 16-11-2015 | Исправлено: KroMvELo, 11:25 19-11-2015
KroMvELo



BANNED
Редактировать | Профиль | Сообщение | Цитировать | Сообщить модератору
Подробнее...
Вася Обломов - Многоходовочка! (2014)
 
http://s020.radikal.ru/i709/1511/6e/326f36043b64.jpg
 
«Многоходовочка» - это четвёртый полноценный альбом Васи Обломова. Поэт, музыкант и общественный деятель, известный как Вася Обломов, рассказывает немного о новом альбоме «Многоходовочка»: По моим ощущениям, новая пластинка получилась не хуже предыдущих. Может, вышла более грустной, более живой. Она называется «Многоходовочка», на ней 13 треков: один дуэт с Гариком Сукачевым, одна песня на стихи Есенина, еще одна на стихи Бродского, все остальное — мое. Вася Обломов — это проект, у которого нет определенных творческих рамок. Например, в новом альбоме у меня звучат и живые скрипки, и акустические гитары, и «советские» бас-гитары, так что свои предпочтения в музыке я старался туда вложить.
 
EAC LOG
 
Exact Audio Copy V1.0 beta 4 from 7. December 2014
 
Отчёт EAC об извлечении, выполненном 15. марта 2015, 21:32
 
Вася Обломов / Многоходовочка!
 
Дисковод: ASUS BW-12B1ST Adapter: 1 ID: 0
 
Режим чтения : Достоверность
Использование точного потока : Да
Отключение кэша аудио : Да
Использование указателей C2 : Нет
 
Коррекция смещения при чтении : 6
Способность читать области Lead-in и Lead-out : Нет
Заполнение пропущенных сэмплов тишиной : Да
Удаление блоков с тишиной в начале и конце : Нет
При вычислениях CRC использовались нулевые сэмплы : Да
Интерфейс : Встроенный Win32-интерфейс для Win NT/2000
 
Выходной формат : Внутренние WAV-операции
Формат сэмплов : 44.100 Гц; 16 бит; стерео
 
 
TOC извлечённого CD
 
Трек | Старт | Длительность | Начальный сектор | Конечный сектор  
---------------------------------------------------------------------
1 | 0:00.00 | 4:17.39 | 0 | 19313  
2 | 4:17.39 | 2:34.43 | 19314 | 30906  
3 | 6:52.07 | 1:58.27 | 30907 | 39783  
4 | 8:50.34 | 3:00.04 | 39784 | 53287  
5 | 11:50.38 | 2:02.56 | 53288 | 62493  
6 | 13:53.19 | 2:24.32 | 62494 | 73325  
7 | 16:17.51 | 3:49.07 | 73326 | 90507  
8 | 20:06.58 | 1:39.57 | 90508 | 97989  
9 | 21:46.40 | 4:18.05 | 97990 | 117344  
10 | 26:04.45 | 1:31.55 | 117345 | 124224  
11 | 27:36.25 | 3:53.20 | 124225 | 141719  
12 | 31:29.45 | 3:06.04 | 141720 | 155673  
13 | 34:35.49 | 4:02.37 | 155674 | 173860  
 
 
Характеристики диапазона извлечения и сообщения об ошибках
 
Выбранный диапазон
 
Имя файла D:\EAC\Вася Обломов - 2014 - Многоходовочка!\Вася Обломов - 2014 - Многоходовочка!.wav
 
Пиковый уровень 99.5 %
Скорость извлечения 2.9 X
Качество диапазона 99.9 %
CRC теста 16E6BAD9
CRC копии 16E6BAD9
Копирование... OK
 
Ошибок не произошло
 
 
AccurateRip: сводка
 
Трек 1 отсутствует в базе данных
Трек 2 отсутствует в базе данных
Трек 3 отсутствует в базе данных
Трек 4 отсутствует в базе данных
Трек 5 отсутствует в базе данных
Трек 6 отсутствует в базе данных
Трек 7 отсутствует в базе данных
Трек 8 отсутствует в базе данных
Трек 9 отсутствует в базе данных
Трек 10 отсутствует в базе данных
Трек 11 отсутствует в базе данных
Трек 12 отсутствует в базе данных
Трек 13 отсутствует в базе данных
 
Ни одного трека нет в базе AccurateRip
 
Конец отчёта
 
---- CUETools DB Plugin V2.1.4
 
[CTDB TOCID: fGRmeGxsHJwBIKXQTRt50RcGH50-] disk not present in database
Submit result: fGRmeGxsHJwBIKXQTRt50RcGH50- has been uploaded
 
 
==== Контрольная сумма отчёта B8F35D48C81EC520C7964093BFE3823C89EDA4536BD26DB3005BA92C1FA24CC8 ====
 
auCDtect
-----------------------
 
DON'T MODIFY THIS FILE
 
-----------------------
 
PERFORMER: auCDtect Task Manager, ver. 1.6.0 RC1 build 1.6.0.1
Copyright (c) 2008-2010 y-soft. All rights reserved
http://y-soft.org
 
ANALYZER: auCDtect: CD records authenticity detector, version 0.8.2
Copyright (c) 2004 Oleg Berngardt. All rights reserved.
Copyright (c) 2004 Alexander Djourik. All rights reserved.
 
 
FILE: Вася Обломов - 2014 - Многоходовочка!.flac
Size: 259611550 Hash: 0328ACA5DA98C1755FF9E9B9FE82BB14 Accuracy: -m0
Conclusion: CDDA 99%
Signature: 98E99EEB7BDF4396311409DB4273B9A88226AE8A
Направление, стиль: Рок, Рэп, Альтернативный шансон
Исполнитель: Вася Обломов
Альбом: Многоходовочка!
Год издания: 2014
Страна: Россия
Издатель (лейбл): POPmarket (PM 04-12040)
Продолжительность: 00:38:38
Формат: EAC (Image, Cue, Log, Covers)
Параметры: FLAC (896 kbps)
Источник: Торрент
Специальная благодарность:
Оригинальному релизёру
 
Треклист:
 
01.Вася Обломов - ИМХО (4:18)
02.Вася Обломов - Человек хороший (2:35)
03.Вася Обломов - Доброта (1:58)
04.Вася Обломов - Трагедия (3:00)
05.Вася Обломов - Wi-Fi (2:03)
06.Вася Обломов - Многоходовочка (2:24)
07.Вася Обломов - Грёбаный стыд (feat. Гарик Сукачёв) (3:49)
08.Вася Обломов - У чувства отчаяния нету срока (1:40)
09.Вася Обломов - Национальная идея (4:18)
10.Вася Обломов - Пора валить (1:32)
11.Вася Обломов - Письмо Санта-Клаусу (3:53)
12.Вася Обломов - Когда-нибудь (3:06)
13.Вася Обломов - Грубым дается радость (4:02)
 
Размер файлов: 267.02 Мб
 
Скачать:
 
rusfolder.com [/more]

Всего записей: 36 | Зарегистр. 08-11-2015 | Отправлено: 13:23 17-11-2015 | Исправлено: KroMvELo, 11:23 19-11-2015
KroMvELo



BANNED
Редактировать | Профиль | Сообщение | Цитировать | Сообщить модератору
Подробнее...
Автограф «Истина» (1986)
http://s019.radikal.ru/i627/1511/3f/a6ef1e636d20.jpg
В 1985 году вокал для "Истины" и "Реквиема" перезаписали на студии "Мелодия". На данном варианте альбома "Истина" с перезаписанным вокалом, а вместо очень длинного "Реквиема" две новые песни "Головокружение" и "Нам нужен мир".
 
Информация о диске
Направление, стиль: Rock
Исполнитель: Автограф
Альбом: Истина
Год издания: 1986
Страна: Россия
Продолжительность: 00:57:20
Формат: FLAC
Параметры: FLAC (image+.cue+log) / 366 Мб
Треклист
01. Автограф - Истина (4:54)
02. Автограф - Мода (6:00)
03. Автограф - Старый Город (4:25)
04. Автограф - В Мастерской (6:09)
05. Автограф - Длинная Дистанция (4:09)
06. Автограф - Старинная Баллада (7:07)
07. Автограф - Театр (5:55)
08. Автограф - Электронные Часы (4:55)
09. Автограф - Головокружение (4:20)
10. Автограф - Нам Нужен Мир (5:02)
11. Автограф - Время Вперед! (4:25)
••• Log EAC + Log auCDtect •••
Exact Audio Copy V1.1 from 23. June 2015
 
EAC extraction logfile from 16. November 2015, 0:50
 
Автограф / Истина
 
Used drive  : MATSHITADVD-RAM UJ8E2 S   Adapter: 1  ID: 0
 
Read mode               : Secure
Utilize accurate stream : Yes
Defeat audio cache      : Yes
Make use of C2 pointers : No
 
Read offset correction                      : 103
Overread into Lead-In and Lead-Out          : No
Fill up missing offset samples with silence : Yes
Delete leading and trailing silent blocks   : No
Null samples used in CRC calculations       : Yes
Used interface                              : Native Win32 interface for Win NT & 2000
 
Used output format              : User Defined Encoder
Selected bitrate                : 128 kBit/s
Quality                         : High
Add ID3 tag                     : Yes
Command line compressor         : C:\Program Files (x86)\Exact Audio Copy\Flac\flac.exe
Additional command line options : -V -8 -T "Date=%year%" -T "Genre=%genre%" %source%
 
 
TOC of the extracted CD
 
     Track |   Start  |  Length  | Start sector | End sector  
    ---------------------------------------------------------
        1  |  0:00.00 |  4:53.68 |         0    |    22042    
        2  |  4:53.68 |  5:59.67 |     22043    |    49034    
        3  | 10:53.60 |  4:24.47 |     49035    |    68881    
        4  | 15:18.32 |  6:08.50 |     68882    |    96531    
        5  | 21:27.07 |  4:08.54 |     96532    |   115185    
        6  | 25:35.61 |  7:07.20 |    115186    |   147230    
        7  | 32:43.06 |  5:55.03 |    147231    |   173858    
        8  | 38:38.09 |  4:55.28 |    173859    |   196011    
        9  | 43:33.37 |  4:19.56 |    196012    |   215492    
       10  | 47:53.18 |  5:01.44 |    215493    |   238111    
       11  | 52:54.62 |  4:24.51 |    238112    |   257962    
 
 
Range status and errors
 
Selected range
 
     Filename C:\Audio\Автограф - Истина\Автограф - Истина.wav
 
     Peak level 66.9 %
     Extraction speed 4.1 X
     Range quality 99.9 %
     Test CRC F8B75127
     Copy CRC F8B75127
     Copy OK
 
No errors occurred
 
 
AccurateRip summary
 
Track  1  not present in database
Track  2  not present in database
Track  3  not present in database
Track  4  not present in database
Track  5  not present in database
Track  6  not present in database
Track  7  not present in database
Track  8  not present in database
Track  9  not present in database
Track 10  not present in database
Track 11  not present in database
 
None of the tracks are present in the AccurateRip database
 
End of status report
 
---- CUETools DB Plugin V2.1.6
 
[CTDB TOCID: 8KFbCYPouK0HKINrGLiVTtXQFcw-] disk not present in database
Submit result: 8KFbCYPouK0HKINrGLiVTtXQFcw- has been uploaded
 
 
==== Log checksum 2917723FBA2261F7C7EF73AEF85940D69E0B2EF44A4C5D087776609B83B132CE ====
 
###########################################################
 
-----------------------
 
DON'T MODIFY THIS FILE
 
-----------------------
 
PERFORMER: auCDtect Task Manager, ver. 1.6.0 RC1 build 1.6.0.1
Copyright (c) 2008-2010 y-soft. All rights reserved
http://y-soft.org
 
ANALYZER: auCDtect: CD records authenticity detector, version 0.8.2
Copyright (c) 2004 Oleg Berngardt. All rights reserved.
Copyright (c) 2004 Alexander Djourik. All rights reserved.
 
 
FILE: Автограф - Истина.flac
  Size: 371687192 Hash: 0B46333734BAAC64F96B8746ED717EB9 Accuracy: -m0
  Conclusion: MPEG 92%
  Signature: 19925FBC769F702143A0B0E808165E0697D26EC0
 
Ссылки
rusfolder
 
Видео
Автограф «Истина» [/more]

Всего записей: 36 | Зарегистр. 08-11-2015 | Отправлено: 11:15 18-11-2015 | Исправлено: KroMvELo, 11:21 19-11-2015
KroMvELo



BANNED
Редактировать | Профиль | Сообщение | Цитировать | Сообщить модератору
Подробнее...
Наталья Ветлицкая «Раба любви» (1996)

http://s017.radikal.ru/i422/1511/65/32ff2580edfa.jpg

Наталья Ветлицкая родилась в Москве 17 августа 1964 года.
С десяти лет она стала профессионально заниматься бальными танцами, а затем поступила в музыкальную школу по классу фортепиано, которую окончила в 1979 году с золотой медалью.
В 17 лет Наталья начала самостоятельно вести школу бальных танцев. В течение десяти лет, начиная с 1974 года, будущая певица неоднократно принимала участие в различных бальных конкурсах.
В 1996 году вышел альбом певицы «Раба любви». Песни с нового альбома постоянно находились в ротации многих радиостанций.
Информация о диске
Направление, стиль: Pop, Europop, Karaoke
Исполнитель: Наталья Ветлицкая
Альбом: Раба любви
Год издания: 1996
Страна: Россия
Издатель (лейбл): Союз
Продолжительность: 00:42:32
Формат: FLAC
Параметры: FLAC (image+.cue+log)  / + Covers / 307 Мб
Credits: Lyrics By – И. Кохановский* (tracks: 8), К. Львович* (tracks: 1, 3 to 5, 7), С. Патрушев* (tracks: 2, 9)
Music By – И. Духовный* (tracks: 1 to 5, 7 to 9), Н. Ветлицкая* (tracks: 2)
Written-By – К. Львович* (tracks: 6)
Треклист
01. Наталья Ветлицкая - Раба любви (3:58)
02. Наталья Ветлицкая - Шила я платье (3:23)
03. Наталья Ветлицкая - Блюз одиноких сердец (3:30)
04. Наталья Ветлицкая - Новый год (3:13)
05. Наталья Ветлицкая - Я не вернусь (3:32)
06. Наталья Ветлицкая - В долине грёз (3:33)
07. Наталья Ветлицкая - Банкет (3:54)
08. Наталья Ветлицкая - Первый снег (3:42)
09. Наталья Ветлицкая - Лунный кот (2:59)
10. Наталья Ветлицкая - Раба любви (караоке) (3:57)
11. Наталья Ветлицкая - Шила я платье (караоке) (3:22)
12. Наталья Ветлицкая - Я не вернусь (караоке) (3:27)
 
••• Log EAC + Log auCDtect •••
Exact Audio Copy V0.99 prebeta 4 from 23. January 2008
 
Отчёт EAC об извлечении, выполненном 30. апреля 2008, 21:02
 
Ветлицкая Наталья / Раба любви
 
Дисковод: ASUS    DRW-1814BL   Adapter: 0  ID: 3
 
Режим чтения                 : Достоверность
Использование точного потока : Да
Отключение кэша аудио        : Да
Использование указателей C2  : Нет
 
Коррекция смещения при чтении                     : 6
Способность читать области Lead-in и Lead-out     : Нет
Заполнение пропущенных сэмплов тишиной            : Да
Удаление блоков с тишиной в начале и конце        : Нет
При вычислениях CRC использовались нулевые сэмплы : Да
Интерфейс                                         : Установленный внешний ASPI-интерфейс
 
Выходной формат : Внутренние WAV-операции
Формат сэмплов  : 44.100 Гц; 16 бит; стерео
 
 
TOC извлечённого CD
 
     Трек |   Старт  | Длительность | Начальный сектор | Конечный сектор  
    ---------------------------------------------------------------------
       1  |  0:00.10 |    3:57.52   |          10      |      17836      
       2  |  3:57.62 |    3:22.43   |       17837      |      33029      
       3  |  7:20.30 |    3:29.45   |       33030      |      48749      
       4  | 10:50.00 |    3:13.30   |       48750      |      63254      
       5  | 14:03.30 |    3:32.35   |       63255      |      79189      
       6  | 17:35.65 |    3:33.30   |       79190      |      95194      
       7  | 21:09.20 |    3:54.35   |       95195      |     112779      
       8  | 25:03.55 |    3:42.25   |      112780      |     129454      
       9  | 28:46.05 |    2:59.32   |      129455      |     142911      
      10  | 31:45.37 |    3:57.03   |      142912      |     160689      
      11  | 35:42.40 |    3:22.30   |      160690      |     175869      
      12  | 39:04.70 |    3:27.35   |      175870      |     191429      
 
 
Характеристики диапазона извлечения и сообщения об ошибках
 
Выбранный диапазон
 
     Имя файла C:\Documents and Settings\Admin\Мои документы\Моя музыка\N.Vetlickaja - 1996 - Raba Lubvi.wav
 
     Пиковый уровень 99.3 %
     Качество диапазона 100.0 %
     CRC копии 59F9772D
     Копирование... OK
 
Ошибок не произошло
 
 
AccurateRip: сводка
 
Трек  1  нет в базе данных
Трек  2  нет в базе данных
Трек  3  нет в базе данных
Трек  4  нет в базе данных
Трек  5  нет в базе данных
Трек  6  нет в базе данных
Трек  7  нет в базе данных
Трек  8  нет в базе данных
Трек  9  нет в базе данных
Трек 10  нет в базе данных
Трек 11  нет в базе данных
Трек 12  нет в базе данных
 
Ни одного трека нет в базе AccurateRip
 
Конец отчёта
 
###########################################################
 
-----------------------
 
DON'T MODIFY THIS FILE
 
-----------------------
 
PERFORMER: auCDtect Task Manager, ver. 1.6.0 RC1 build 1.6.0.1
Copyright (c) 2008-2010 y-soft. All rights reserved
http://y-soft.org
 
ANALYZER: auCDtect: CD records authenticity detector, version 0.8.2
Copyright (c) 2004 Oleg Berngardt. All rights reserved.
Copyright (c) 2004 Alexander Djourik. All rights reserved.
 
 
FILE: Наталья Ветлицкая - Раба любви.flac
  Size: 310702486 Hash: BB77290DD4BE02A646D62F3DF0859B85 Accuracy: -m0
  Conclusion: CDDA 100%
  Signature: 78EA3B80712CC8306385EF38BF96330AE91FD255
 
Ссылки
rusfolder
 
Видео
Наталья Ветлицкая «Раба любви» [/more]

Всего записей: 36 | Зарегистр. 08-11-2015 | Отправлено: 13:57 19-11-2015 | Исправлено: KroMvELo, 13:59 19-11-2015
AMPIRUTYUN



Silver Member
Редактировать | Профиль | Сообщение | Цитировать | Сообщить модератору
Spagna - Dance Collection (1997)
 
   
 

 
Performer: Spagna
Album: Dance Collection
Label: EpiC/Sony Music Italy. Made in Holland.
Catalog #: EPC 487901 2
Style: Italo-Disco, Synth-pop  
Year: 1997 (Compilation)
Format: FLAC (image + .cue)
Bitrate: lossless
Covers: in archive
Amount of tracks: 16
Size ZIP: ~ 614 mb
 
••• Log EAC + Log auCDtect + Dynamic Range Meter + Spectrum •••
 
Tracklist:
=================
01. Spagna - Call Me [4:08]
02. Spagna - Easy Lady [4:52]
03. Spagna - I Always Dream About You [4:36]
04. Spagna - Lady Madonna (D.Monti Euromix 133 B.P.M.) [4:57]
05. Spagna - Why Me [4:13]
06. Spagna - Love At First Sight [4:51]
07. Spagna - Don't Go Away Tonight [3:49]
08. Spagna - I Wanna Be Your Wife [4:02]
09. Spagna - This Generation [3:54]
10. Spagna - Every Girl And Boy [3:43]
11. Spagna - Dance Dance Dance [4:18]
12. Spagna - Why Me (Radio Edit) [3:51]
13. Spagna - Love At First Sight (Groove Radio Version) [4:26]
14. Spagna - I Wanna Be Your Wife (Extended Version) [5:34]
15. Spagna - Lady Madonna (Radio Edit 128 B.P.M.) [4:11]
16. Spagna - I Always Dream About You (L & D Dub Mix) [5:46]
--------------------------
Total time: [1:11:10]
 
Notes:
=================
Compilation (p) & (c) 1997 Sony Music Entertainment (Italy) S.p.A.
Printed in Holland.
Disc made in Austria.
 
   
Скачать CD | Download CD
password: aheron

Всего записей: 2444 | Зарегистр. 01-12-2009 | Отправлено: 19:33 19-11-2015 | Исправлено: AMPIRUTYUN, 19:35 19-11-2015
KroMvELo



BANNED
Редактировать | Профиль | Сообщение | Цитировать | Сообщить модератору
Подробнее...
Lindsey Stirling «Live From London» (2015)

http://s019.radikal.ru/i619/1511/4b/2b40acaa3e48.jpg

Концерт талантливой американской скрипачки Линдси Стирлинг состоялся в Лондоне в Forum Theater в 2014 году в поддержку своего второго студийного альбома «Shatter Me». Линдси исполняет очень разную музыку, от классики до дабстепа, но, кроме всего прочего, она записывает кавер-версии популярных игровых саундтреков, что привлекло к ней внимание игроков.
 
Информация о диске
Направление, стиль: Electronic, Violin, Instrumental, Classical
Исполнитель: Lindsey Stirling
Альбом: Live From London
Год издания: 2015
Страна: US
Издатель (лейбл): Lindseystomp Music LLC / Universal Music GmbH
ASIN: B00ZVJ95B0
Продолжительность: 01:04:58
Формат: FLAC
Параметры: FLAC (image+.cue+log)  / + Covers / 542.52 Мб
 
Треклист
01. Lindsey Stirling - Beyond The Veil (4:43)
02. Lindsey Stirling - Mirror Haus (3:55)
03. Lindsey Stirling - Electric Daisy Violin (3:21)
04. Lindsey Stirling - Night Vision (3:38)
05. Lindsey Stirling - Heist (3:35)
06. Lindsey Stirling - Swag (3:17)
07. Lindsey Stirling - We Are Giants (Vocals by Dia Frampton) (4:09)
08. Lindsey Stirling - Transcendence (4:05)
09. Lindsey Stirling - All Of Me (3:43)
10. Lindsey Stirling - Take Flight (4:26)
11. Lindsey Stirling - Moon Trance (4:09)
12. Lindsey Stirling - Roundtable Rival (3:32)
13. Lindsey Stirling - Master Of Tides (3:47)
14. Lindsey Stirling - Crystallize (4:36)
15. Lindsey Stirling - Shatter Me (Vocals by Lzzy Hale) (5:04)
16. Lindsey Stirling - Stars Align (4:58)
 
••• Log EAC + Log auCDtect •••
Exact Audio Copy V1.1 from 23. June 2015
 
EAC extraction logfile from 18. November 2015, 23:08
 
Lindsey Stirling / Live From London
 
Used drive  : MATSHITADVD-RAM UJ8E2 S   Adapter: 1  ID: 0
 
Read mode               : Secure
Utilize accurate stream : Yes
Defeat audio cache      : Yes
Make use of C2 pointers : No
 
Read offset correction                      : 103
Overread into Lead-In and Lead-Out          : No
Fill up missing offset samples with silence : Yes
Delete leading and trailing silent blocks   : No
Null samples used in CRC calculations       : Yes
Used interface                              : Native Win32 interface for Win NT & 2000
 
Used output format              : User Defined Encoder
Selected bitrate                : 128 kBit/s
Quality                         : High
Add ID3 tag                     : Yes
Command line compressor         : C:\Program Files (x86)\Exact Audio Copy\Flac\flac.exe
Additional command line options : -V -8 -T "Date=%year%" -T "Genre=%genre%" %source%
 
 
TOC of the extracted CD
 
     Track |   Start  |  Length  | Start sector | End sector  
    ---------------------------------------------------------
        1  |  0:00.00 |  4:43.00 |         0    |    21224    
        2  |  4:43.00 |  3:54.40 |     21225    |    38814    
        3  |  8:37.40 |  3:21.31 |     38815    |    53920    
        4  | 11:58.71 |  3:37.43 |     53921    |    70238    
        5  | 15:36.39 |  3:34.59 |     70239    |    86347    
        6  | 19:11.23 |  3:17.32 |     86348    |   101154    
        7  | 22:28.55 |  4:09.21 |    101155    |   119850    
        8  | 26:38.01 |  4:04.65 |    119851    |   138215    
        9  | 30:42.66 |  3:42.64 |    138216    |   154929    
       10  | 34:25.55 |  4:25.59 |    154930    |   174863    
       11  | 38:51.39 |  4:08.45 |    174864    |   193508    
       12  | 43:00.09 |  3:32.02 |    193509    |   209410    
       13  | 46:32.11 |  3:47.26 |    209411    |   226461    
       14  | 50:19.37 |  4:36.28 |    226462    |   247189    
       15  | 54:55.65 |  5:04.05 |    247190    |   269994    
       16  | 59:59.70 |  4:58.27 |    269995    |   292371    
 
 
Range status and errors
 
Selected range
 
     Filename C:\Audio\Lindsey Stirling - Live From London\Lindsey Stirling - Live From London.wav
 
     Peak level 100.0 %
     Extraction speed 4.3 X
     Range quality 100.0 %
     Test CRC 60885621
     Copy CRC 60885621
     Copy OK
 
No errors occurred
 
End of status report
 
###########################################################
 
-----------------------
 
DON'T MODIFY THIS FILE
 
-----------------------
 
PERFORMER: auCDtect Task Manager, ver. 1.6.0 RC1 build 1.6.0.1
Copyright (c) 2008-2010 y-soft. All rights reserved
http://y-soft.org
 
ANALYZER: auCDtect: CD records authenticity detector, version 0.8.2
Copyright (c) 2004 Oleg Berngardt. All rights reserved.
Copyright (c) 2004 Alexander Djourik. All rights reserved.
 
 
FILE: Lindsey Stirling - Live From London.flac
  Size: 550008151 Hash: 9655EE6B43FEADC4A35EBB5CD9218C71 Accuracy: -m0
  Conclusion: CDDA 99%
  Signature: 034E9037B982500D395C4CB8A9432E088C21375B
 
Ссылки
rusfolder
depositfiles
rapidgator
userscloud
 
Видео
Lindsey Stirling - Roundtable Rival
 [/more]

Всего записей: 36 | Зарегистр. 08-11-2015 | Отправлено: 23:24 19-11-2015
RunawayTrane



Advanced Member
Редактировать | Профиль | Сообщение | Цитировать | Сообщить модератору
Cedar Walton - Animation/Soundscapes
JAZZ+FUNK | FLAC | CUE | LOG | PNG ARTWORK | 598MB | 82:57
CBS 1978 + 1980

 
 
   
 
 
 
 
 

Цитата:
A long-overdue reissue – both of Cedar Walton's fusion albums for Columbia – back to back on a single CD! Animation is one of Cedar Walton's mid 70s funky jazz efforts – acoustic keys often traded for electric piano, grooving with a funky bigger band, almost in a Ramsey Lewis mode – a really great shift that makes the record a nice change from the usual Walton groove! Cedar's a lot busier on the keys than Ramsey was at the time, though – not as kicked-back Fender Rhodes as he is keeping up a tight and soulful fusion groove. The approach is quite different from Walton's other albums of earlier years, but actually works quite well – and the album's a tasty set of smoother soul and funk-infused numbers, with a hint of Brazilian touches as well! Tracks include "Another Star", "Charmed Circle", "Jacob's Ladder", "Precious Mountain", "If It Could Happen", and "Ala Eduardo". Soundscapes is brilliant work from Cedar Walton – a wonderful bit of soulful fusion from the crucially overlooked late 70s years of Columbia Jazz. The album's got a blend of soul and jazz that's similar to work at the time by Bobby Hutcherson or Freddie Hubbard – occasional vocals, larger lusher production, and a style that was really well suited to bringing together the best of fusion and soul, without resorting to tricks or gimmicks. The album's filled with really wonderful cuts that are completely unlike most of Walton's other work – and which show him to be an amazing talent in the soul end of the spectrum, not just in the soul jazz one that we're used to. Tunes are wonderful, arrangements are brilliant – and the album manages to be smooth without losing any depth. Titles include the great groover "Latin America", plus "Warm To The Touch", "NPS", "Sixth Avenue", and "Naturally".  © 1996-2011, Dusty Groove America, Inc.

 
 
 
Cedar Walton - Piano, Fender
Freddie Hubbard - Trumpet
Steve Turre - Trombone
Buddy Williams - Drums
Emmanuel Boyd - Flute
Leon Thomas - Vocals
Tony Dumas - Bass
Al Foster - Drums
Bob Berg - Saxophone
Ray Mantilla - Percussion
Rubens Bassini - Percussion
Paulinho Da Costa - Percussion

 
 
 
 
 
 
 
 
 
 
 
 
 
TRACKLISTING:
01. Animation
02. Jacob's Ladder    
03. Charmed Circle
04. Another Star
05. Precious Mountain
06. March of the Fishman
07. If It Could Happen
08. Ala Eduardo    
09. Warm to the Touch      
10. The Early Generation
11. N.P.S.
12. Latin America
13. Sixth Avenue
14. Naturally
 
 
 
MEGA.NZ
UPLOADED
pw: lisalisa

Всего записей: 1206 | Зарегистр. 18-09-2008 | Отправлено: 05:29 21-11-2015 | Исправлено: RunawayTrane, 05:30 21-11-2015
RunawayTrane



Advanced Member
Редактировать | Профиль | Сообщение | Цитировать | Сообщить модератору
Commodores - Hot On The Tracks / In The Pocket
DOUBLE ALBUM | SOUL+FUNK | FLAC | CUE | LOG | COVERS | 445MB | 72:08
Motown 1976 / 1981

 
 
   
 
 
 
 
 
 
 

Цитата:
Motown's series of Commodores two-fers paired Hot on the Tracks with In the Pocket and, in doing so, spanned a rather drastic breach in the group's evolution. Lionel Richie and company had recorded Hot on the Tracks just as they were hitting their stride in the mid-'70s, fresh off the burgeoning, yet still relatively modest, success of Caught in the Act and Movin' On. It's an excellent album, surely one of the group's best. On the other hand, the Commodores had recorded In the Pocket in 1981, after five steady years of chart-topping quiet storm ballads and a gradual shift from loose funk to stiff disco. Furthermore, by the time the Commodores recorded In the Pocket, Richie had become the group's de facto hitmaker and was on the brink of jumping ship for an incredibly popular solo career. The group chemistry that had made Hot on the Tracks so exciting -- resulting in great songs like "Let's Get Started," "Girl, I Think the World About You," "High on Sunshine," "Just to Be Close to You," and "Fancy Dancer" -- was sorely missing, displaced by an air of professional studiocraft. For instance, while the bandmembers had previously written the majority of their own songs, they relied largely on outsourcing for In the Pocket. Of course, that outsourcing resulted in one of their greatest steppers cuts, "Lady," but it also resulted in a lot of schlock. Not even the obligatory Richie ballad, "Oh No," could do much to salvage the otherwise spotty and categorical album. So, listening to the excellent Hot on the Tracks and the ramshackle In the Pocket side by side is a bit jarring. The juxtaposition is really notable, and quite curious. ~ Jason Birchmeier, All Music Guide

 
 
Walter Orange - Drums, Vocals
Thomas McClary - Guitar, Vocals
Lionel Richie - Vocals
William King - Trumpet
Ronald LaPread - Bass
David Cochrane - Saxophone
Darrell Jones - Drums, Guitar
Milan Williams - Keyboards, Guitar
Harold Hudson - Keyboards, Trumpet

 
 
 
 
 
 
 
 
 
 
TRACKLISTING:
01. Let's Get Started
02. Girl, I Think The World About You
03. High On Sunshine
04. Just To Be Close To You
05. Fancy Dancer
06. Come Inside
07. Thumpin Music
08. Quick Draw
09. Can't Let You Tease Me
10. Lady (You Bring Me Up)
11. Saturday Night
12. Keep On Taking Me Higher
13. Oh No
14. Why You Wanna Try Me
15. This Love
16. Been Loving You
17. Lucy
 
 
 
1FICHIER
MEGA.NZ
SOLIDFILES
pw: lisalisa

 
Добавлено:
LTD - Shine On
SOUL | FLAC | CUE | LOG | COVERS | 237MB | 37:20
A&M 1980

 
 
 
   
 
 
 
 
 
 
 
 

Цитата:
Since the group's first national hit "Love Ballad," Jeffrey Osborne had been the featured vocalist for LTD. However, this recording would be his last one with the group before pursuing a solo career. This album spawned two upstanding singles -- "Where Did We Go Wrong" and "Shine On" -- the fomer being a rhythmic ballad enhanced by some stylish background vocals, leaving Jeffrey Osborne substantial space to demonstrate his commanding vocal ability. In spite of having all the right ingredients to attain that number one status, the single peaked at number seven after 20 weeks on the Billboard R&B charts. It would be the group's last single to crack the Top Ten. The latter composition is arranged with noticeable crossover appeal augmented by Osborne's crooning vocals; the single peaked at 19 before fizzling out after 18 weeks. ~ Craig Lytle, All Music Guide

 
 
 
Henry Davis - Bass, Piccolo, Synthesizer
Billy Osborne - Electric Piano, Vocals
Jeffrey Osborne - Percussion, Vocals
Jim Davis - Clavinet, Piano
Johnny McGhee - Guitar
Angela Winbush - Vocals
Jake Riley - Trombone
David Sherr - Oboe
Alvino Bennett - Drums
Pete Kleinow - Steel Guitar
Sidney Muldrow - French Horn
Abraham Miller - Tenor Saxophone
Carle Vickers - Fiddle, Flute, Trumpet
Lorenzo Carnegie - Alto, Tenor Saxophone

 
 
 
 
 
 
 
 
 
TRACKLISTING:
01. You Gave Me Love
02. Where Did We Go Wrong
03. Getaway
04. Will Love Grow
05. Love Is What You Need
06. Shine On
07. Lovers Everywhere
08. Lady Love
09. Don't Cha Know
 
 
 
 
 
MEDIAFIRE
GAVITEX
SOLIDFILES
pw: lisalisa

Всего записей: 1206 | Зарегистр. 18-09-2008 | Отправлено: 14:47 29-11-2015 | Исправлено: RunawayTrane, 16:36 29-11-2015
AMPIRUTYUN



Silver Member
Редактировать | Профиль | Сообщение | Цитировать | Сообщить модератору
La Bouche - Sweet Dreams (1995)
 
   
 

 
Performer: La Bouche
Album: Sweet Dreams
Label: MCI/BMG Ariola. Made in Germany.
Catalog #: 74321 28888 2
Style: Eurodance, Euro House  
Year: 1995
Format: FLAC (image + .cue)
Bitrate: lossless
Covers: in archive
Amount of tracks: 14
Size ZIP: ~ 365 mb
 
••• Log EAC + Log auCDtect + Dynamic Range Meter + Spectrum •••
 

 
Tracklist:
=================
01. La Bouche - Forget Me Nots [4:12]
02. La Bouche - Sweet Dreams [3:25]
03. La Bouche - Be My Lover [4:01]
04. La Bouche - Fallin' In Love [3:57]
05. La Bouche - I'll Be There [4:10]
06. La Bouche - Nice 'N' Slow [4:00]
07. La Bouche - Where Do You Go [4:21]
08. La Bouche - I Love To Love [3:58]
09. La Bouche - Do You Still Need Me [3:41]
10. La Bouche - Poetry In Motion [3:47]
11. La Bouche - Shoo Bee Do Bee Do (I Like That Way) [4:01]
12. La Bouche - The Heat Is On [3:45]
13. La Bouche - Mama Look (I Love Him) [3:56]
-=Bonus Track=-
14. La Bouche - Be My Lover (House Mix) [3:55]
--------------------------
Total time: [55:05]
 
Notes:
=====================
(p) 1995 MCI / BMG Ariola
(c) 1995 BMG Ariola Media GmbH
 
Made / Printed in the EC
 
   
Скачать CD | Download CD
password: aheron

Всего записей: 2444 | Зарегистр. 01-12-2009 | Отправлено: 17:44 29-11-2015 | Исправлено: AMPIRUTYUN, 17:47 29-11-2015
RunawayTrane



Advanced Member
Редактировать | Профиль | Сообщение | Цитировать | Сообщить модератору
Cassandra Wilson - Point of View
M-BASE | FLAC | CUE | LOG | COVERS | 237MB | 42:45
JMT Productions 1986

 
 
 
   
 
 
 
 
 
 

Цитата:
Cassandra Wilson's debut as a leader features the chance-taking singer in a funky M-Base setting. The overcrowded ensembles (played by altoist Steve Coleman, trombonist Grachan Moncur III, guitarist Jean-Paul Bourelly, bassist Lonnie Plaxico, and drummer Mark Johnson) did not leave much space for a singer, but the flexible Wilson did her best to find a role for her voice, and she sounds enthusiastic. In addition to group originals, the sextet performs "Blue in Green" (which has Wilson's lyrics) and "I Wished on the Moon." ~ Scott Yanow, All Music Guide

 
 
Cassandra Wilson - Leader, Vocals
Lonnie Plaxico - Bass
Mark Johnson - Drums
Jean-Paul Bourelly - Guitar
Grachan Moncur - Trombone
Steve Coleman - Alto Saxophone

 
 
 
 
 
 
 
 
TRACKLISTING:
01. Square Roots
02. Blue in Green
03. Never
04. Desperate Move
05. Love and Hate
06. I Am Waiting
07. I Wished on the Moon
08. I Thought You Knew
 
 
 
MEDIAFIRE
GAVITEX
FILEFACTORY
pw: lisalisa

Всего записей: 1206 | Зарегистр. 18-09-2008 | Отправлено: 12:09 30-11-2015
RunawayTrane



Advanced Member
Редактировать | Профиль | Сообщение | Цитировать | Сообщить модератору
Steve Coleman - Synovial Joints
JAZZ | FLAC | CUE | LOG | COVERS | 375MB | 62:01
Pi Recordings 2015

 
 
 
   
 
 
 
 
 
 
 
 
 

Цитата:
Composer and saxophonist Steve Coleman grew up Chicago's AACM neighborhood before moving on to New York's big band scene in the 1970s. Diverse influences combined with his assorted academic interests in philosophy, world religion and nature, have made him a source for some of the most unique music of the past twenty years. While not immune from critical misunderstanding, the recent winner of MacArthur and Guggenheim Fellowships and the Doris Duke Performing Artist Award has proven himself an enduring creative force. Coleman has remained true to his musical objectives and his unique—and always evolving—approaches continue to be relevant. His perseverance has paid off with Synovial Joints, a significant achievement in his long career. Coleman applies a two-fold approach to the creative process. One part incorporates the natural world, in the sense of how things move and flow, and he joins this with his concept called "camouflage orchestration" which his more difficult to articulate but comes alive upon hearing the music. The compositions and arrangements find an elusive equilibrium between philosophy and free forms. A number of colleagues from Coleman's Five Elements group join a very large collective that includes strings and multiple percussionists with influences that range from classical to Latin. The opening track, "Acupuncture Openings," is a good place to begin talking about Coleman's concept. Instrumental groupings and themes move in and out of focus; more an illusionist's performance than changing the structure of the piece or the formation behind it. Just when an awareness of the setting becomes clear it evaporates to be replaced by a different realty; not abruptly and in many cases, not even immediately apparent as the natural movement coexists with the theoretical concept. "Celtic Calls" opens with Jen Shyu's ethereal vocal that comingles with the instrumentation and then drifts toward symphonic characteristics laced with operatic qualities. The title suite focuses its four parts on the correlation of various human movements and if that sounds a bit sterile, it is not in execution. Though it may not always be clear which joints are being addressed, a sensation of liquidity is expertly conveyed, especially in Coleman's arrangements and fluid playing. "Harmattan" has more of a defined swing element but remains in keeping with the unexpected directions that the music takes throughout the collection. There is a feeling that all of Coleman's compositional components are fully integrated and mutually exclusive at the same time, defying logic. There is little sense that Coleman is employing a twenty-one piece ensemble as their purpose in Coleman's vision is segmented and specifically defined to deliver alternating phases that rarely bring subgroups together in traditionally synchronous manner. Synovial Joints is full of brilliantly conceived pieces, performed by musicians who shine in their virtuosity. It is the finest and most ambitious work of his career. ---Karl Ackerman, All About Jazz

 
 
Steve Coleman - Leader, Alto Saxophone
Barry Crawford - Flute, Piccolo
Ramon Garcia Perez - Congas
Alex Lipowski - Percussion
Marcus Gilmore - Drums
Anthony Tidd - Bass
David Bryant - Piano
Kristin Lee - Violin
Chris Otto - Viola
Jay Campbell - Cello
Jen Shyu - Vocals
Miles Okazaki - Guitar
Rane Moore     - Clarinet
Tim Albright - Trombone
Mauricio Herrera - Bongos
Greg Chudzik - Contrabass
Jonathan Finlayson - Trumpet
David Nelson - Bass Trombone
Jeff Missal - Piccolo Trumpet, Trumpet
Maria Grand - Tenor Saxophone, Cowbell
Nei Sacramento - Berimbau, Congas, Talking Drum

 
 
 
 
 
 
 
 
 
 
TRACKLISTING:
01. Acupuncture Openings
02. Celtic Cells
03. Synovial Joints - Part I - Hand and Wrist
04. Synovial Joints - Part II - Hip and Shoulder
05. Synovial Joints - Part III - Torso
06. Synovial Joints - Part IV - Head and Neck
07. Tempest
08. Harmattan
09. Nomadic
10. Eye of Heru
 
 
 
 
 
UPLOADED
MEGA.NZ
FILEFACTORY
pw: lisalisa

Всего записей: 1206 | Зарегистр. 18-09-2008 | Отправлено: 21:12 01-12-2015
RunawayTrane



Advanced Member
Редактировать | Профиль | Сообщение | Цитировать | Сообщить модератору
Urban Knights - Urban Knights II
JAZZ | FLAC | CUE | LOG | PNG | 366MB | 50:04
GRP 1997

 
 
 
   
 
   
 
 
 
 
       
 
 

Цитата:
When Maurice White produced the Urban Knights' self-titled debut album in 1994, some people were surprised to see Earth, Wind & Fire's leader/founder producing an album of mostly instrumental jazz-funk and pop-jazz. But for those who knew something about White's pre-EWF history, it wasn't all that surprising -- White had a jazz background, and he played drums in the Ramsey Lewis Trio before forming EWF's original pre-Philip Bailey lineup in 1970. Lewis, in fact, is among the participants on this CD by the Urban Knights, whose first lineup consists of Lewis on piano, Grover Washington, Jr. on tenor and soprano sax, Victor Bailey on electric bass, and Omar Hakim on drums. With such an all-star lineup, this album should have been exceptional -- it isn't, although Urban Knights offers a generally pleasant, if inconsistent and unremarkable, mixture of jazz, R&B, and pop. There are moments of interest; the CD's more noteworthy tracks include Lewis' Brazilian-influenced "Urban Samba," Hakim's dreamy "Hearts of Longing," and White's funky "On the Radio." But when Earth, Wind & Fire's leader/founder is the producer and musicians like Lewis and Washington are on board, you expect an album that is more than just pleasant -- you expect a masterpiece. And while Urban Knights isn't bad, it doesn't live up to its enormous potential. ~ Alex Henderson, All Music Guide

 
 
 
Ramsey Lewis - Electric Piano
Jonathan Butler - Guitar, Vocals
Gerald Albright - Saxophone
Najee - Flute, Saxophone
Frayne Lewis - Keyboards
Morris Pleasure - Bass
Verdine White - Bass
Sonny Emory - Drums
Chuck Webb - Bass
Mike Logan - Keyboards
Sheldon Reynolds - Guitar
Bill Meyers - Fender Rhodes
Jimi Randolph - Synthesizer
Tony Carpenter - Percussion
Paulinho Da Costa - Percussion
Kevin Randolph - Bass Synthesizer

 
 
 
 
 
 
 
 
 
 
TRACKLISTING:
01. On The Radio
02. Wanna Be With You
03. Chill    
04. Hearts Of Longing
05. Friendship    
06. Miracle    
07. The Rose    
08. Urban Samba
09. Forever More    
10. Senegal
 
 
 
 
1FICHIER
MEGA.NZ
UPLOADED
pw: lisalisa

Всего записей: 1206 | Зарегистр. 18-09-2008 | Отправлено: 17:37 13-12-2015
Открыть новую тему     Написать ответ в эту тему

Страницы: 1 2 3 4 5 6 7 8 9 10 11 12 13 14 15 16 17 18 19 20 21 22 23 24 25 26 27 28 29 30 31 32 33 34 35 36 37 38 39 40 41 42 43 44 45 46 47 48 49 50 51 52 53 54 55 56 57 58 59 60 61 62 63 64 65 66 67 68 69 70

Компьютерный форум Ru.Board » Общие » Музыка и Кино » Музыка в lossless форматах. Часть 5

Имя:
Пароль:
Сообщение

Для вставки имени, кликните на нем.

Опции сообщенияДобавить свою подпись
Подписаться на получение ответов по e-mail
Добавить тему в личные закладки
Разрешить смайлики?
Запретить коды


Реклама на форуме Ru.Board.

Powered by Ikonboard "v2.1.7b" © 2000 Ikonboard.com
Modified by Ru.Board
© Ru.Board 2000-2017

BitCoin: 1NGG1chHtUvrtEqjeerQCKDMUi6S6CG4iC

Рейтинг.ru