Перейти из форума на сайт.

НовостиФайловые архивы
ПоискАктивные темыТоп лист
ПравилаКто в on-line?
Вход Забыли пароль? Первый раз на этом сайте? Регистрация
Компьютерный форум Ru.Board » Общие » Музыка и Кино » Музыка в lossless форматах (часть 5)

Модерирует : PrincesskaMarishka, ULer

 Версия для печати • ПодписатьсяДобавить в закладки
На первую страницук этому сообщениюк последнему сообщению

Открыть новую тему     Написать ответ в эту тему

AMPIRUTYUN



Silver Member
Редактировать | Профиль | Сообщение | Цитировать | Сообщить модератору
Exact Audio Copy V1.3 from 2. September 2016
 
Отчёт EAC об извлечении, выполненном 19. октября 2016, 13:08
 
George Benson / The Best Of George Benson
 
Дисковод: _NEC    DVD_RW ND-3550A   Adapter: 1  ID: 3
 
Режим чтения                 : Достоверность
Использование точного потока : Да
Отключение кэша аудио        : Да
Использование указателей C2  : Нет
 
Коррекция смещения при чтении                     : 48
Способность читать области Lead-in и Lead-out     : Нет
Заполнение пропущенных сэмплов тишиной            : Да
Удаление блоков с тишиной в начале и конце        : Нет
При вычислениях CRC использовались нулевые сэмплы : Да
Интерфейс                                         : Встроенный Win32-интерфейс для Win NT/2000
 
Выходной формат          : Пользовательский кодировщик
Выбранный битрейт        : 1024 kBit/s
Качество                 : Высокий
Добавление ID3-тега      : Нет
Утилита сжатия           : C:\Program Files (x86)\Exact Audio Copy\FLAC\FLAC.EXE
Дополнительные параметры : -6 -V -T "ARTIST=%artist%" -T "TITLE=%title%" -T "ALBUM=%albumtitle%" -T "DATE=%year%" -T "TRACKNUMBER=%tracknr%" -T "GENRE=%genre%" -T "COMMENT=%comment%" -T "BAND=%albuminterpret%" -T "ALBUMARTIST=%albuminterpret%" -T "COMPOSER=%composer%" %haslyrics%--tag-from-file=LYRICS="%lyricsfile%"%haslyrics% -T "DISCNUMBER=%cdnumber%" -T "TOTALDISCS=%totalcds%" -T "TOTALTRACKS=%numtracks%" %hascover%--picture="%coverfile%"%hascover% %source% -o %dest%
 
 
TOC извлечённого CD
 
     Трек |   Старт  | Длительность | Начальный сектор | Конечный сектор  
    ---------------------------------------------------------------------
       1  |  0:00.00 |    3:43.35   |           0      |      16759      
       2  |  3:43.35 |    4:16.53   |       16760      |      36012      
       3  |  8:00.13 |    3:18.12   |       36013      |      50874      
       4  | 11:18.25 |    4:45.20   |       50875      |      72269      
       5  | 16:03.45 |    4:29.00   |       72270      |      92444      
       6  | 20:32.45 |    3:50.30   |       92445      |     109724      
       7  | 24:23.00 |    5:15.45   |      109725      |     133394      
       8  | 29:38.45 |    4:07.33   |      133395      |     151952      
       9  | 33:46.03 |    3:49.50   |      151953      |     169177      
      10  | 37:35.53 |    4:06.30   |      169178      |     187657      
      11  | 41:42.08 |    4:25.35   |      187658      |     207567      
      12  | 46:07.43 |    3:56.55   |      207568      |     225322      
      13  | 50:04.23 |    3:33.27   |      225323      |     241324      
      14  | 53:37.50 |    5:12.18   |      241325      |     264742      
 
 
Характеристики диапазона извлечения и сообщения об ошибках
 
Выбранный диапазон
 
     Имя файла C:\Users\ОЛЕГ\Desktop\George Benson - The Best Of (1995)\George Benson - The Best Of George Benson.wav
 
     Пиковый уровень 97.7 %
     Скорость извлечения 7.4 X
     Качество диапазона 100.0 %
     CRC копии CBEC93AE
     Копирование... OK
 
Ошибок не произошло
 
 
AccurateRip: сводка
 
Трек  1  : извлечено точно (доверие 34)  [3E9D8F94]  (AR v2)
Трек  2  : извлечено точно (доверие 34)  [28C25033]  (AR v2)
Трек  3  : извлечено точно (доверие 34)  [C3C7671B]  (AR v2)
Трек  4  : извлечено точно (доверие 34)  [47414A27]  (AR v2)
Трек  5  : извлечено точно (доверие 34)  [AE0D86F8]  (AR v2)
Трек  6  : извлечено точно (доверие 34)  [0CD3DD44]  (AR v2)
Трек  7  : извлечено точно (доверие 34)  [2DA9BC77]  (AR v2)
Трек  8  : извлечено точно (доверие 34)  [A1523ED9]  (AR v2)
Трек  9  : извлечено точно (доверие 33)  [08F93445]  (AR v2)
Трек 10  : извлечено точно (доверие 34)  [969010BD]  (AR v2)
Трек 11  : извлечено точно (доверие 34)  [3CEA2BD5]  (AR v2)
Трек 12  : извлечено точно (доверие 34)  [20B99005]  (AR v2)
Трек 13  : извлечено точно (доверие 33)  [6303DB9E]  (AR v2)
Трек 14  : извлечено точно (доверие 34)  [853C241B]  (AR v2)
 
Все треки извлечены точно
 
Конец отчёта
 
---- CUETools DB Plugin V2.1.6
 
[CTDB TOCID: 5Ba7CtjRebjmSDi7fQlNMUnyd_M-] database access error: Время ожидания операции истекло
 
 
==== Контрольная сумма отчёта 5F4EE334BCBCDC5A81BB573E98000CA0BF37BCB8D3DC97471F1FC80F0E991A67 ====
 
////////////////////////////////////////////////////////////////////////////////////////////////////////
 
-----------------------
 
DON'T MODIFY THIS FILE
 
-----------------------
 
PERFORMER: auCDtect Task Manager, ver. 1.6.0 RC1 build 1.6.0.1
Copyright (c) 2008-2010 y-soft. All rights reserved
http://y-soft.org
 
ANALYZER: auCDtect: CD records authenticity detector, version 0.8.2
Copyright (c) 2004 Oleg Berngardt. All rights reserved.
Copyright (c) 2004 Alexander Djourik. All rights reserved.
 
 
FILE: George Benson - The Best Of George Benson.flac
  Size: 378719533 Hash: 3E40B732A4781D724A8E877B0F87AE65 Accuracy: -m0
  Conclusion: CDDA 100%
  Signature: 42813F7539EA4353D224E87251EE464098333890
 
///////////////////////////////////////////////////////////////////////////////////////////////////////
 
foobar2000 1.3.17 / Dynamic Range Meter 1.1.1
log date: 2018-05-13 19:40:14
 
--------------------------------------------------------------------------------
Analyzed: George Benson / The Best Of George Benson
--------------------------------------------------------------------------------
 
DR         Peak         RMS     Duration Track
--------------------------------------------------------------------------------
DR14      -0.20 dB   -16.64 dB      3:43 01-Give Me The Night (Edit)
DR13      -2.30 dB   -16.92 dB      4:17 02-Love Ballad
DR13      -1.92 dB   -18.22 dB      3:18 03-This Masquerade (Edit)
DR12      -1.22 dB   -15.38 dB      4:45 04-Love X Love
DR12      -2.27 dB   -16.68 dB      4:29 05-I Just Wanna Hang Around You
DR12      -1.04 dB   -16.62 dB      3:50 06-Turn Your Love Around
DR10      -2.63 dB   -15.41 dB      5:16 07-Inside Love (So Personal)
DR13      -0.68 dB   -16.31 dB      4:07 08-20/20
DR13      -0.60 dB   -16.51 dB      3:50 09-Everything Must Change (Edit)
DR12      -1.80 dB   -16.13 dB      4:06 10-Never Give Up On A Good Thing
DR12      -1.35 dB   -16.10 dB      4:25 11-Kisses In The Moonlight
DR11      -2.46 dB   -15.35 dB      3:57 12-Lady Love Me (One More Time)
DR13      -0.20 dB   -17.19 dB      3:33 13-Lady Blue
DR14      -0.20 dB   -17.02 dB      5:12 14-On Broadway (Edit)
--------------------------------------------------------------------------------
 
Number of tracks:  14
Official DR value: DR12
 
Samplerate:        44100 Hz
Channels:          2
Bits per sample:   16
Bitrate:           858 kbps
Codec:             FLAC
================================================================================
 
////////////////////////////////////////////////////////////////////////////////////////////////////////////
 

Всего записей: 2461 | Зарегистр. 01-12-2009 | Отправлено: 22:52 08-06-2018
Открыть новую тему     Написать ответ в эту тему

На первую страницук этому сообщениюк последнему сообщению

Компьютерный форум Ru.Board » Общие » Музыка и Кино » Музыка в lossless форматах (часть 5)


Реклама на форуме Ru.Board.

Powered by Ikonboard "v2.1.7b" © 2000 Ikonboard.com
Modified by Ru.Board
© Ru.Board 2000-2020

BitCoin: 1NGG1chHtUvrtEqjeerQCKDMUi6S6CG4iC

Рейтинг.ru