Перейти из форума на сайт.

НовостиФайловые архивы
ПоискАктивные темыТоп лист
ПравилаКто в on-line?
Вход Забыли пароль? Первый раз на этом сайте? Регистрация
Компьютерный форум Ru.Board » Общие » Музыка и Кино » Музыка в lossless форматах (часть 5)

Модерирует : PrincesskaMarishka, ULer

 Версия для печати • ПодписатьсяДобавить в закладки
На первую страницук этому сообщениюк последнему сообщению

Открыть новую тему     Написать ответ в эту тему

AMPIRUTYUN



Silver Member
Редактировать | Профиль | Сообщение | Цитировать | Сообщить модератору
Exact Audio Copy V1.0 beta 3 from 29. August 2011
 
EAC extraction logfile from 11. April 2013, 21:55
 
Joe Cocker / Night Calls
 
Used drive : TSSTcorpCDDVDW TS-H653B Adapter: 0 ID: 0
 
Read mode : Secure
Utilize accurate stream : Yes
Defeat audio cache : Yes
Make use of C2 pointers : No
 
Read offset correction : 6
Overread into Lead-In and Lead-Out : No
Fill up missing offset samples with silence : Yes
Delete leading and trailing silent blocks : No
Null samples used in CRC calculations : Yes
Used interface : Native Win32 interface for Win NT & 2000
 
Used output format : User Defined Encoder
Selected bitrate : 896 kBit/s
Quality : High
Add ID3 tag : No
Command line compressor : C:\Program Files (x86)\Exact Audio Copy\wavpack.exe
Additional command line options : -hm %source% %dest%
 
 
TOC of the extracted CD
 
 Track | Start | Length | Start sector | End sector  
 ---------------------------------------------------------
 1 | 0:00.33 | 4:43.52 | 33 | 21309  
 2 | 4:44.10 | 4:49.28 | 21310 | 43012  
 3 | 9:33.38 | 4:41.10 | 43013 | 64097  
 4 | 14:14.48 | 5:07.60 | 64098 | 87182  
 5 | 19:22.33 | 3:26.60 | 87183 | 102692  
 6 | 22:49.18 | 4:09.72 | 102693 | 121439  
 7 | 26:59.15 | 3:27.73 | 121440 | 137037  
 8 | 30:27.13 | 5:30.05 | 137038 | 161792  
 9 | 35:57.18 | 4:47.15 | 161793 | 183332  
 10 | 40:44.33 | 5:36.02 | 183333 | 208534  
 11 | 46:20.35 | 3:55.50 | 208535 | 226209  
 12 | 50:16.10 | 5:29.18 | 226210 | 250902  
 13 | 55:45.28 | 4:37.25 | 250903 | 271702  
 14 | 60:22.53 | 5:01.30 | 271703 | 294307  
 15 | 65:24.08 | 4:17.20 | 294308 | 313602  
 
 
Range status and errors
 
Selected range
 
 Filename G:\NL[ZAM]\Cocker\92\Joe Cocker - Night Calls.wav
 
 Peak level 98.9 %
 Extraction speed 7.6 X
 Range quality 99.9 %
 Test CRC 0039A4D6
 Copy CRC 0039A4D6
 Copy OK
 
No errors occurred
 
 
AccurateRip summary
 
Track 1 accurately ripped (confidence 17) [8CD9CA32] (AR v1)
Track 2 accurately ripped (confidence 17) [316BDC8A] (AR v1)
Track 3 accurately ripped (confidence 17) [0436E912] (AR v1)
Track 4 accurately ripped (confidence 17) [F4026680] (AR v1)
Track 5 accurately ripped (confidence 17) [BFB28F90] (AR v1)
Track 6 accurately ripped (confidence 18) [B3008DDB] (AR v1)
Track 7 accurately ripped (confidence 17) [20256DF6] (AR v1)
Track 8 accurately ripped (confidence 17) [0F07F713] (AR v1)
Track 9 accurately ripped (confidence 18) [6735E15A] (AR v1)
Track 10 accurately ripped (confidence 17) [6B198875] (AR v1)
Track 11 accurately ripped (confidence 18) [70F33619] (AR v1)
Track 12 accurately ripped (confidence 17) [FD47211A] (AR v1)
Track 13 accurately ripped (confidence 16) [DC744E4A] (AR v1)
Track 14 accurately ripped (confidence 17) [5B4210D6] (AR v1)
Track 15 accurately ripped (confidence 17) [DCD2FEE6] (AR v1)
 
All tracks accurately ripped
 
End of status report
 
---- CUETools DB Plugin V2.1.3
 
[CTDB TOCID: jLv7hXxcBXK7KVQcEDUDNw_4ypg-] disk not present in database, Submit result: discs with pregaps not supported in this protocol version
 
////////////////////////////////////////////////////////////////////////////////////////////
 
AUDIOCHECKER v2.0 beta (build 457) - by Dester - opdester@freemail.hu
~~~~~~~~~~~~~~~~~~~~~~~~~~~~~~~~~~
-=== DO NOT EDIT THIS FILE! ===-
 
Path: ...\JoeCocker-NightCalls1992HQ
 
1 -=- Joe Cocker - Night Calls (1992).flac -=- CDDA (100%)
 
67728420

Всего записей: 2461 | Зарегистр. 01-12-2009 | Отправлено: 19:35 15-04-2013 | Исправлено: AMPIRUTYUN, 23:51 15-04-2013
Открыть новую тему     Написать ответ в эту тему

На первую страницук этому сообщениюк последнему сообщению

Компьютерный форум Ru.Board » Общие » Музыка и Кино » Музыка в lossless форматах (часть 5)


Реклама на форуме Ru.Board.

Powered by Ikonboard "v2.1.7b" © 2000 Ikonboard.com
Modified by Ru.Board
© Ru.Board 2000-2020

BitCoin: 1NGG1chHtUvrtEqjeerQCKDMUi6S6CG4iC

Рейтинг.ru