Перейти из форума на сайт.

НовостиФайловые архивы
ПоискАктивные темыТоп лист
ПравилаКто в on-line?
Вход Забыли пароль? Первый раз на этом сайте? Регистрация
Компьютерный форум Ru.Board » Общие » Музыка и Кино » Музыка в lossless форматах (часть 5)

Модерирует : PrincesskaMarishka, ULer

 Версия для печати • ПодписатьсяДобавить в закладки
На первую страницук этому сообщениюк последнему сообщению

Открыть новую тему     Написать ответ в эту тему

AMPIRUTYUN



Silver Member
Редактировать | Профиль | Сообщение | Цитировать | Сообщить модератору
Exact Audio Copy V1.0 beta 3 from 29. August 2011
 
EAC extraction logfile from 28. March 2013, 13:31
 
Katherine Jenkins / Premiere
 
Used drive : Optiarc DVD RW AD-5280S Adapter: 2 ID: 1
 
Read mode : Secure
Utilize accurate stream : Yes
Defeat audio cache : Yes
Make use of C2 pointers : No
 
Read offset correction : 48
Overread into Lead-In and Lead-Out : No
Fill up missing offset samples with silence : Yes
Delete leading and trailing silent blocks : No
Null samples used in CRC calculations : Yes
Used interface : Installed external ASPI interface
 
Used output format : Internal WAV Routines
Sample format : 44.100 Hz; 16 Bit; Stereo
 
 
TOC of the extracted CD
 
 Track | Start | Length | Start sector | End sector  
 ---------------------------------------------------------
 1 | 0:00.00 | 3:40.31 | 0 | 16530  
 2 | 3:40.31 | 3:10.45 | 16531 | 30825  
 3 | 6:51.01 | 3:02.04 | 30826 | 44479  
 4 | 9:53.05 | 2:53.08 | 44480 | 57462  
 5 | 12:46.13 | 4:23.03 | 57463 | 77190  
 6 | 17:09.16 | 2:31.71 | 77191 | 88586  
 7 | 19:41.12 | 4:00.03 | 88587 | 106589  
 8 | 23:41.15 | 2:49.34 | 106590 | 119298  
 9 | 26:30.49 | 3:55.61 | 119299 | 136984  
 10 | 30:26.35 | 2:15.25 | 136985 | 147134  
 11 | 32:41.60 | 3:15.07 | 147135 | 161766  
 12 | 35:56.67 | 3:55.36 | 161767 | 179427  
 13 | 39:52.28 | 3:02.09 | 179428 | 193086  
 14 | 42:54.37 | 2:48.16 | 193087 | 205702  
 
 
Range status and errors
 
Selected range
 
 Filename C:\rip-flacmusic.ru\Katherine Jenkins - Premiere.wav
 
 Peak level 100.0 %
 Extraction speed 3.8 X
 Range quality 100.0 %
 Test CRC DD3DE9B3
 Copy CRC DD3DE9B3
 Copy OK
 
No errors occurred
 
 
AccurateRip summary
 
Track 1 accurately ripped (confidence 2) [49CFBDE5] (AR v2)
Track 2 accurately ripped (confidence 2) [E576CE0E] (AR v2)
Track 3 accurately ripped (confidence 2) [319EA01E] (AR v2)
Track 4 accurately ripped (confidence 2) [2F71F715] (AR v2)
Track 5 accurately ripped (confidence 2) [8B17F33F] (AR v2)
Track 6 accurately ripped (confidence 2) [69828758] (AR v2)
Track 7 accurately ripped (confidence 2) [D1B10F39] (AR v2)
Track 8 accurately ripped (confidence 2) [021D8DA8] (AR v2)
Track 9 accurately ripped (confidence 2) [8B2BFCC6] (AR v2)
Track 10 accurately ripped (confidence 2) [85C6309A] (AR v2)
Track 11 accurately ripped (confidence 2) [CBC81615] (AR v2)
Track 12 accurately ripped (confidence 2) [4F2681C4] (AR v2)
Track 13 accurately ripped (confidence 2) [90D13B51] (AR v2)
Track 14 accurately ripped (confidence 2) [C46282DA] (AR v2)
 
All tracks accurately ripped
 
End of status report
 
==== Log checksum FBFCFF440BAB7BB3AD1F4B888CA1DB73F63FF89A39A4EFD49F77E1E0CC7B8782 ====
 
/////////////////////////////////////////////////////////////////////////////////////////////
 
AUDIOCHECKER v2.0 beta (build 457) - by Dester - opdester@freemail.hu
~~~~~~~~~~~~~~~~~~~~~~~~~~~~~~~~~~
-=== DO NOT EDIT THIS FILE! ===-
 
Path: ...\KatherineJenkins-Premiere2004HQ
 
1 -=- Katherine Jenkins - Premiere.wav -=- CDDA (100%)
 
58984932

Всего записей: 2461 | Зарегистр. 01-12-2009 | Отправлено: 23:50 15-04-2013
Открыть новую тему     Написать ответ в эту тему

На первую страницук этому сообщениюк последнему сообщению

Компьютерный форум Ru.Board » Общие » Музыка и Кино » Музыка в lossless форматах (часть 5)


Реклама на форуме Ru.Board.

Powered by Ikonboard "v2.1.7b" © 2000 Ikonboard.com
Modified by Ru.Board
© Ru.Board 2000-2020

BitCoin: 1NGG1chHtUvrtEqjeerQCKDMUi6S6CG4iC

Рейтинг.ru