Перейти из форума на сайт.

НовостиФайловые архивы
ПоискАктивные темыТоп лист
ПравилаКто в on-line?
Вход Забыли пароль? Первый раз на этом сайте? Регистрация
Компьютерный форум Ru.Board » Общие » Музыка и Кино » Музыка в lossless форматах (часть 5)

Модерирует : PrincesskaMarishka, ULer

 Версия для печати • ПодписатьсяДобавить в закладки
На первую страницук этому сообщениюк последнему сообщению

Открыть новую тему     Написать ответ в эту тему

AMPIRUTYUN



Silver Member
Редактировать | Профиль | Сообщение | Цитировать | Сообщить модератору
Exact Audio Copy V1.0 beta 3 from 29. August 2011
 
EAC extraction logfile from 12. March 2013, 10:41
 
Enya / Paint The Sky With Stars - The Best Of Enya
 
Used drive : Optiarc DVD RW AD-5280S Adapter: 2 ID: 1
 
Read mode : Secure
Utilize accurate stream : Yes
Defeat audio cache : Yes
Make use of C2 pointers : No
 
Read offset correction : 48
Overread into Lead-In and Lead-Out : No
Fill up missing offset samples with silence : Yes
Delete leading and trailing silent blocks : No
Null samples used in CRC calculations : Yes
Used interface : Installed external ASPI interface
 
Used output format : Internal WAV Routines
Sample format : 44.100 Hz; 16 Bit; Stereo
 
 
TOC of the extracted CD
 
 Track | Start | Length | Start sector | End sector  
 ---------------------------------------------------------
 1 | 0:00.00 | 4:26.70 | 0 | 20019  
 2 | 4:26.70 | 3:58.72 | 20020 | 37941  
 3 | 8:25.67 | 2:56.15 | 37942 | 51156  
 4 | 11:22.07 | 3:46.68 | 51157 | 68174  
 5 | 15:09.00 | 3:19.55 | 68175 | 83154  
 6 | 18:28.55 | 2:57.57 | 83155 | 96486  
 7 | 21:26.37 | 4:40.00 | 96487 | 117486  
 8 | 26:06.37 | 3:40.28 | 117487 | 134014  
 9 | 29:46.65 | 1:52.72 | 134015 | 142486  
 10 | 31:39.62 | 4:11.55 | 142487 | 161366  
 11 | 35:51.42 | 2:26.48 | 161367 | 172364  
 12 | 38:18.15 | 4:15.55 | 172365 | 191544  
 13 | 42:33.70 | 3:55.10 | 191545 | 209179  
 14 | 46:29.05 | 3:38.67 | 209180 | 225596  
 15 | 50:07.72 | 4:19.68 | 225597 | 245089  
 16 | 54:27.65 | 3:28.65 | 245090 | 260754  
 
 
Range status and errors
 
Selected range
 
 Filename C:\rip-flacmusic.ru\Enya - Paint The Sky With Stars - The Best Of Enya.wav
 
 Peak level 98.8 %
 Extraction speed 4.1 X
 Range quality 99.9 %
 Test CRC 8A1B9B45
 Copy CRC 8A1B9B45
 Copy OK
 
No errors occurred
 
 
AccurateRip summary
 
Track 1 accurately ripped (confidence 27) [0E3E4A44] (AR v2)
Track 2 accurately ripped (confidence 27) [3FAD2E43] (AR v2)
Track 3 accurately ripped (confidence 27) [E0C8BF2A] (AR v2)
Track 4 accurately ripped (confidence 27) [ED86AE13] (AR v2)
Track 5 accurately ripped (confidence 26) [4B57E500] (AR v2)
Track 6 accurately ripped (confidence 26) [9D0F96A9] (AR v2)
Track 7 accurately ripped (confidence 27) [41F7B72F] (AR v2)
Track 8 accurately ripped (confidence 27) [33C92461] (AR v2)
Track 9 accurately ripped (confidence 27) [92074B1C] (AR v2)
Track 10 accurately ripped (confidence 26) [EB38CEE8] (AR v2)
Track 11 accurately ripped (confidence 27) [74FDB086] (AR v2)
Track 12 accurately ripped (confidence 27) [AA7301CC] (AR v2)
Track 13 accurately ripped (confidence 26) [CCFD28F1] (AR v2)
Track 14 accurately ripped (confidence 27) [214AC7B9] (AR v2)
Track 15 accurately ripped (confidence 27) [B9C57AAD] (AR v2)
Track 16 accurately ripped (confidence 26) [A725FD5D] (AR v2)
 
All tracks accurately ripped
 
End of status report
 
==== Log checksum EF3F7E31E7E5582FDBC22CE5352C14B0BA022CF6E3AD50395E8380A079DE930D ====
 
//////////////////////////////////////////////////////////////////////////////////////////////
 
AUDIOCHECKER v2.0 beta (build 457) - by Dester - opdester@freemail.hu
~~~~~~~~~~~~~~~~~~~~~~~~~~~~~~~~~~
-=== DO NOT EDIT THIS FILE! ===-
 
Path: ...\Enya-PaintTheSkyWithStars-TheBestOfEnya1997HQ
 
1 -=- Enya - Paint The Sky With Stars - The Best Of Enya.wav -=- CDDA (100%)
 
83697780

Всего записей: 2461 | Зарегистр. 01-12-2009 | Отправлено: 12:29 16-04-2013 | Исправлено: AMPIRUTYUN, 12:30 16-04-2013
Открыть новую тему     Написать ответ в эту тему

На первую страницук этому сообщениюк последнему сообщению

Компьютерный форум Ru.Board » Общие » Музыка и Кино » Музыка в lossless форматах (часть 5)


Реклама на форуме Ru.Board.

Powered by Ikonboard "v2.1.7b" © 2000 Ikonboard.com
Modified by Ru.Board
© Ru.Board 2000-2020

BitCoin: 1NGG1chHtUvrtEqjeerQCKDMUi6S6CG4iC

Рейтинг.ru