Перейти из форума на сайт.

НовостиФайловые архивы
ПоискАктивные темыТоп лист
ПравилаКто в on-line?
Вход Забыли пароль? Первый раз на этом сайте? Регистрация
Компьютерный форум Ru.Board » Общие » Музыка и Кино » Музыка в lossless форматах (часть 5)

Модерирует : PrincesskaMarishka, ULer

 Версия для печати • ПодписатьсяДобавить в закладки
На первую страницук этому сообщениюк последнему сообщению

Открыть новую тему     Написать ответ в эту тему

AMPIRUTYUN



Silver Member
Редактировать | Профиль | Сообщение | Цитировать | Сообщить модератору
Exact Audio Copy V1.0 beta 3 from 29. August 2011
 
Отчёт EAC об извлечении, выполненном 20. апреля 2013, 16:36
 
System Of A Down / Hypnotize
 
Дисковод: PIONEER DVD-RW  DVR-111D   Adapter: 4  ID: 1
 
Режим чтения                 : Достоверность
Использование точного потока : Да
Отключение кэша аудио        : Да
Использование указателей C2  : Нет
 
Коррекция смещения при чтении                     : 48
Способность читать области Lead-in и Lead-out     : Нет
Заполнение пропущенных сэмплов тишиной            : Да
Удаление блоков с тишиной в начале и конце        : Нет
При вычислениях CRC использовались нулевые сэмплы : Да
Интерфейс                                         : Встроенный Win32-интерфейс для Win NT/2000
 
Выходной формат          : Пользовательский кодировщик
Выбранный битрейт        : 128 kBit/s
Качество                 : Высокий
Добавление ID3-тега      : Нет
Утилита сжатия           : F:\Program Files\FLAC\flac.exe
Дополнительные параметры : -V -8 -T "Date=%year%" -T "Genre=%genre%" %source%
 
 
TOC извлечённого CD
 
     Трек |   Старт  | Длительность | Начальный сектор | Конечный сектор  
    ---------------------------------------------------------------------
       1  |  0:00.00 |    3:06.33   |           0      |      13982      
       2  |  3:06.33 |    3:59.65   |       13983      |      31972      
       3  |  7:06.23 |    2:27.72   |       31973      |      43069      
       4  |  9:34.20 |    3:09.33   |       43070      |      57277      
       5  | 12:43.53 |    2:58.02   |       57278      |      70629      
       6  | 15:41.55 |    3:36.40   |       70630      |      86869      
       7  | 19:18.20 |    2:55.18   |       86870      |     100012      
       8  | 22:13.38 |    5:28.64   |      100013      |     124676      
       9  | 27:42.27 |    2:51.61   |      124677      |     137562      
      10  | 30:34.13 |    2:44.12   |      137563      |     149874      
      11  | 33:18.25 |    2:47.67   |      149875      |     162466      
      12  | 36:06.17 |    3:40.23   |      162467      |     178989      
 
 
Характеристики диапазона извлечения и сообщения об ошибках
 
Выбранный диапазон
 
     Имя файла D:\EAC - extract\System Of A Down - 2005 - Hypnotize (SICP-933).wav
 
     Пиковый уровень 100.0 %
     Скорость извлечения 6.7 X
     Качество диапазона 100.0 %
     CRC теста FA83A8D7
     CRC копии FA83A8D7
     Копирование... OK
 
Ошибок не произошло
 
 
AccurateRip: сводка
 
Трек  1  : извлечено точно (доверие 8)  [D6638B2B]  (AR v1)
Трек  2  : извлечено точно (доверие 8)  [AE7F2B24]  (AR v1)
Трек  3  : извлечено точно (доверие 9)  [44582178]  (AR v1)
Трек  4  : извлечено точно (доверие 9)  [953880E9]  (AR v1)
Трек  5  : извлечено точно (доверие 9)  [697CF3D0]  (AR v1)
Трек  6  : извлечено точно (доверие 9)  [556B4BEF]  (AR v1)
Трек  7  : извлечено точно (доверие 9)  [D1EE29F7]  (AR v1)
Трек  8  : извлечено точно (доверие 9)  [0A2B362D]  (AR v1)
Трек  9  : извлечено точно (доверие 9)  [98309285]  (AR v1)
Трек 10  : извлечено точно (доверие 9)  [1B923F35]  (AR v1)
Трек 11  : извлечено точно (доверие 9)  [14127D03]  (AR v1)
Трек 12  : извлечено точно (доверие 9)  [9E926854]  (AR v1)
 
Все треки извлечены точно
 
Конец отчёта
 
==== Контрольная сумма отчёта DE717B83ED48AC74EED251353A19DE012524722975448F3455C16E6689F5AD23 ====
 
/////////////////////////////////////////////////////////////////////////////////////////////////////
 
-----------------------
 
DON'T MODIFY THIS FILE
 
-----------------------
 
PERFORMER: auCDtect Task Manager, ver. 1.5.1RC6 build 1.5.1.7
Copyright (c) 2008-2010 y-soft. All rights reserved
http://y-soft.org
 
ANALYZER: auCDtect: CD records authenticity detector, version 0.8.2
Copyright (c) 2004 Oleg Berngardt. All rights reserved.
Copyright (c) 2004 Alexander Djourik. All rights reserved.
 
 
FILE: System Of A Down - 2005 - Hypnotize (SICP-933).flac
  Size: 303755747 Hash: 0C80C0AC0F22AD0F434DDE69189C1E0F Accuracy: -m0
  Conclusion: CDDA 100%
  Signature: 16ADB199C2B85F6D6322E1F764416B1DEB192CFA
 
/////////////////////////////////////////////////////////////////////////////////////////////
 

Всего записей: 2461 | Зарегистр. 01-12-2009 | Отправлено: 22:41 26-04-2013 | Исправлено: AMPIRUTYUN, 22:42 26-04-2013
Открыть новую тему     Написать ответ в эту тему

На первую страницук этому сообщениюк последнему сообщению

Компьютерный форум Ru.Board » Общие » Музыка и Кино » Музыка в lossless форматах (часть 5)


Реклама на форуме Ru.Board.

Powered by Ikonboard "v2.1.7b" © 2000 Ikonboard.com
Modified by Ru.Board
© Ru.Board 2000-2020

BitCoin: 1NGG1chHtUvrtEqjeerQCKDMUi6S6CG4iC

Рейтинг.ru