Перейти из форума на сайт.

НовостиФайловые архивы
ПоискАктивные темыТоп лист
ПравилаКто в on-line?
Вход Забыли пароль? Первый раз на этом сайте? Регистрация
Компьютерный форум Ru.Board » Общие » Музыка и Кино » Музыка в lossless форматах (часть 5)

Модерирует : PrincesskaMarishka, ULer

 Версия для печати • ПодписатьсяДобавить в закладки
На первую страницук этому сообщениюк последнему сообщению

Открыть новую тему     Написать ответ в эту тему

AMPIRUTYUN



Silver Member
Редактировать | Профиль | Сообщение | Цитировать | Сообщить модератору
Exact Audio Copy V1.0 beta 3 from 29. August 2011
 
EAC extraction logfile from 21. February 2012, 20:23
 
System of a Down / System of a Down (2011, 88697908272-1)
 
Used drive  : ASUS    DRW-24B1ST   Adapter: 3  ID: 0
 
Read mode               : Secure
Utilize accurate stream : Yes
Defeat audio cache      : Yes
Make use of C2 pointers : No
 
Read offset correction                      : 6
Overread into Lead-In and Lead-Out          : No
Fill up missing offset samples with silence : Yes
Delete leading and trailing silent blocks   : No
Null samples used in CRC calculations       : Yes
Used interface                              : Native Win32 interface for Win NT & 2000
 
Used output format              : User Defined Encoder
Selected bitrate                : 128 kBit/s
Quality                         : High
Add ID3 tag                     : No
Command line compressor         : C:\Program Files (x86)\Exact Audio Copy\Flac\flac.exe
Additional command line options : -V -8 -T "Date=%year%" -T "Genre=%genre%" %source%
 
 
TOC of the extracted CD
 
     Track |   Start  |  Length  | Start sector | End sector  
    ---------------------------------------------------------
        1  |  0:00.00 |  2:31.55 |         0    |    11379    
        2  |  2:31.55 |  2:56.52 |     11380    |    24631    
        3  |  5:28.32 |  2:33.60 |     24632    |    36166    
        4  |  8:02.17 |  2:44.45 |     36167    |    48511    
        5  | 10:46.62 |  3:35.33 |     48512    |    64669    
        6  | 14:22.20 |  1:43.05 |     64670    |    72399    
        7  | 16:05.25 |  3:25.60 |     72400    |    87834    
        8  | 19:31.10 |  2:40.37 |     87835    |    99871    
        9  | 22:11.47 |  6:16.08 |     99872    |   128079    
       10  | 28:27.55 |  4:04.07 |    128080    |   146386    
       11  | 32:31.62 |  1:49.10 |    146387    |   154571    
       12  | 34:20.72 |  2:42.45 |    154572    |   166766    
       13  | 37:03.42 |  3:37.10 |    166767    |   183051    
 
 
Range status and errors
 
Selected range
 
     Filename D:\System of a Down - System of a Down (2011, 88697908272-1).wav
 
     Peak level 100.0 %
     Extraction speed 5.4 X
     Range quality 100.0 %
     Test CRC 7D346EE5
     Copy CRC 7D346EE5
     Copy OK
 
No errors occurred
 
 
AccurateRip summary
 
Track  1  accurately ripped (confidence 4)  [5107CB80]  (AR v2)
Track  2  accurately ripped (confidence 4)  [139CA834]  (AR v2)
Track  3  accurately ripped (confidence 4)  [59BB2697]  (AR v2)
Track  4  accurately ripped (confidence 4)  [14814907]  (AR v2)
Track  5  accurately ripped (confidence 4)  [59FA202B]  (AR v2)
Track  6  accurately ripped (confidence 4)  [99604CFA]  (AR v2)
Track  7  accurately ripped (confidence 4)  [14D488E3]  (AR v2)
Track  8  accurately ripped (confidence 4)  [507E892A]  (AR v2)
Track  9  accurately ripped (confidence 4)  [8B0CD810]  (AR v2)
Track 10  accurately ripped (confidence 4)  [9A65B051]  (AR v2)
Track 11  accurately ripped (confidence 4)  [263D21B0]  (AR v2)
Track 12  accurately ripped (confidence 4)  [38655486]  (AR v2)
Track 13  accurately ripped (confidence 4)  [096B375D]  (AR v2)
 
All tracks accurately ripped
 
End of status report
 
---- CUETools DB Plugin V2.1.3
 
[CTDB TOCID: u7nx0qNPdLKQGUla4kM71XPaU0Y-] found, Submit result: u7nx0qNPdLKQGUla4kM71XPaU0Y- has been confirmed
[5e4213df] (7/7) Accurately ripped
 
 
==== Log checksum D72BA162C2339866B0BC5391D38C7091CD15BAF932BC023659E67E9994FCB2E3 ====
 
///////////////////////////////////////////////////////////////////////////////////////////////
 
-----------------------
 
DON'T MODIFY THIS FILE
 
-----------------------
 
PERFORMER: auCDtect Task Manager, ver. 1.5.1RC6 build 1.5.1.7
Copyright (c) 2008-2010 y-soft. All rights reserved
http://y-soft.org
 
ANALYZER: auCDtect: CD records authenticity detector, version 0.8.2
Copyright (c) 2004 Oleg Berngardt. All rights reserved.
Copyright (c) 2004 Alexander Djourik. All rights reserved.
 
 
FILE: System of a Down - System of a Down (2011, 88697908272-1).flac
  Size: 300220564 Hash: BA8F7D11D79C96F6FDAF5A3DCF5D7F11 Accuracy: -m0
  Conclusion: CDDA 100%
  Signature: 8DD31E183640C94E8E0047DAA81A5EFBBE562819
 
///////////////////////////////////////////////////////////////////////////////////////////////////
 

Всего записей: 2461 | Зарегистр. 01-12-2009 | Отправлено: 23:03 28-04-2013 | Исправлено: AMPIRUTYUN, 23:05 28-04-2013
Открыть новую тему     Написать ответ в эту тему

На первую страницук этому сообщениюк последнему сообщению

Компьютерный форум Ru.Board » Общие » Музыка и Кино » Музыка в lossless форматах (часть 5)


Реклама на форуме Ru.Board.

Powered by Ikonboard "v2.1.7b" © 2000 Ikonboard.com
Modified by Ru.Board
© Ru.Board 2000-2020

BitCoin: 1NGG1chHtUvrtEqjeerQCKDMUi6S6CG4iC

Рейтинг.ru