Перейти из форума на сайт.

НовостиФайловые архивы
ПоискАктивные темыТоп лист
ПравилаКто в on-line?
Вход Забыли пароль? Первый раз на этом сайте? Регистрация
Компьютерный форум Ru.Board » Общие » Музыка и Кино » Музыка в lossless форматах (часть 5)

Модерирует : PrincesskaMarishka, ULer

 Версия для печати • ПодписатьсяДобавить в закладки
На первую страницук этому сообщениюк последнему сообщению

Открыть новую тему     Написать ответ в эту тему

AMPIRUTYUN



Silver Member
Редактировать | Профиль | Сообщение | Цитировать | Сообщить модератору
Exact Audio Copy V1.0 beta 3 from 29. August 2011
 
EAC extraction logfile from 21. February 2012, 20:45
 
System of a Down / Toxicity (2011, 88697908272-2)
 
Used drive  : ASUS    DRW-24B1ST   Adapter: 3  ID: 0
 
Read mode               : Secure
Utilize accurate stream : Yes
Defeat audio cache      : Yes
Make use of C2 pointers : No
 
Read offset correction                      : 6
Overread into Lead-In and Lead-Out          : No
Fill up missing offset samples with silence : Yes
Delete leading and trailing silent blocks   : No
Null samples used in CRC calculations       : Yes
Used interface                              : Native Win32 interface for Win NT & 2000
 
Used output format              : User Defined Encoder
Selected bitrate                : 128 kBit/s
Quality                         : High
Add ID3 tag                     : No
Command line compressor         : C:\Program Files (x86)\Exact Audio Copy\Flac\flac.exe
Additional command line options : -V -8 -T "Date=%year%" -T "Genre=%genre%" %source%
 
 
TOC of the extracted CD
 
     Track |   Start  |  Length  | Start sector | End sector  
    ---------------------------------------------------------
        1  |  0:00.00 |  3:21.12 |         0    |    15086    
        2  |  3:21.12 |  3:13.58 |     15087    |    29619    
        3  |  6:34.70 |  2:55.05 |     29620    |    42749    
        4  |  9:30.00 |  2:06.35 |     42750    |    52234    
        5  | 11:36.35 |  1:58.42 |     52235    |    61126    
        6  | 13:35.02 |  3:30.18 |     61127    |    76894    
        7  | 17:05.20 |  1:54.17 |     76895    |    85461    
        8  | 18:59.37 |  4:00.08 |     85462    |   103469    
        9  | 22:59.45 |  2:56.15 |    103470    |   116684    
       10  | 25:55.60 |  2:43.05 |    116685    |   128914    
       11  | 28:38.65 |  1:51.05 |    128915    |   137244    
       12  | 30:29.70 |  3:38.70 |    137245    |   153664    
       13  | 34:08.65 |  3:45.67 |    153665    |   170606    
       14  | 37:54.57 |  6:11.03 |    170607    |   198434    
 
 
Range status and errors
 
Selected range
 
     Filename D:\System of a Down - Toxicity (2011, 88697908272-2).wav
 
     Peak level 98.8 %
     Extraction speed 5.5 X
     Range quality 100.0 %
     Test CRC F8AF2BC6
     Copy CRC F8AF2BC6
     Copy OK
 
No errors occurred
 
 
AccurateRip summary
 
Track  1  accurately ripped (confidence 7)  [9F6EB20C]  (AR v2)
Track  2  accurately ripped (confidence 7)  [3D857841]  (AR v2)
Track  3  accurately ripped (confidence 7)  [F52F65EA]  (AR v2)
Track  4  accurately ripped (confidence 7)  [7B843A3C]  (AR v2)
Track  5  accurately ripped (confidence 7)  [DF1B82D6]  (AR v2)
Track  6  accurately ripped (confidence 7)  [39E08D5E]  (AR v2)
Track  7  accurately ripped (confidence 7)  [694C81DA]  (AR v2)
Track  8  accurately ripped (confidence 7)  [852C4BD0]  (AR v2)
Track  9  accurately ripped (confidence 7)  [5133E640]  (AR v2)
Track 10  accurately ripped (confidence 7)  [AA351FD1]  (AR v2)
Track 11  accurately ripped (confidence 7)  [961D36F6]  (AR v2)
Track 12  accurately ripped (confidence 7)  [54DD7322]  (AR v2)
Track 13  accurately ripped (confidence 7)  [1EE505E1]  (AR v2)
Track 14  accurately ripped (confidence 7)  [CE5FE00C]  (AR v2)
 
All tracks accurately ripped
 
End of status report
 
---- CUETools DB Plugin V2.1.3
 
[CTDB TOCID: m49Iw8QRT7tKXoCzG8ttJfNxlX8-] found, Submit result: m49Iw8QRT7tKXoCzG8ttJfNxlX8- has been confirmed
[2ba4a2af] (10/10) Accurately ripped
 
 
==== Log checksum 06C9A662815CDAEA51617BFB5C507D074F1FAE34A4384972A93F00AC16118BD8 ====
 
///////////////////////////////////////////////////////////////////////////////////////////////
 
-----------------------
 
DON'T MODIFY THIS FILE
 
-----------------------
 
PERFORMER: auCDtect Task Manager, ver. 1.5.1RC6 build 1.5.1.7
Copyright (c) 2008-2010 y-soft. All rights reserved
http://y-soft.org
 
ANALYZER: auCDtect: CD records authenticity detector, version 0.8.2
Copyright (c) 2004 Oleg Berngardt. All rights reserved.
Copyright (c) 2004 Alexander Djourik. All rights reserved.
 
 
FILE: System of a Down - Toxicity (2011, 88697908272-2).flac
  Size: 335213109 Hash: 65687ABF6A072CD920195005E9DCDC1E Accuracy: -m0
  Conclusion: CDDA 100%
  Signature: C39756A5454D1E78516DB87A2F1BCE822E4D9065
 
///////////////////////////////////////////////////////////////////////////////////////////
 

Всего записей: 2461 | Зарегистр. 01-12-2009 | Отправлено: 03:59 29-04-2013
Открыть новую тему     Написать ответ в эту тему

На первую страницук этому сообщениюк последнему сообщению

Компьютерный форум Ru.Board » Общие » Музыка и Кино » Музыка в lossless форматах (часть 5)


Реклама на форуме Ru.Board.

Powered by Ikonboard "v2.1.7b" © 2000 Ikonboard.com
Modified by Ru.Board
© Ru.Board 2000-2020

BitCoin: 1NGG1chHtUvrtEqjeerQCKDMUi6S6CG4iC

Рейтинг.ru