Перейти из форума на сайт.

НовостиФайловые архивы
ПоискАктивные темыТоп лист
ПравилаКто в on-line?
Вход Забыли пароль? Первый раз на этом сайте? Регистрация
Компьютерный форум Ru.Board » Общие » Музыка и Кино » Музыка в lossless форматах (часть 5)

Модерирует : PrincesskaMarishka, ULer

 Версия для печати • ПодписатьсяДобавить в закладки
На первую страницук этому сообщениюк последнему сообщению

Открыть новую тему     Написать ответ в эту тему

AMPIRUTYUN



Silver Member
Редактировать | Профиль | Сообщение | Цитировать | Сообщить модератору
Exact Audio Copy V0.99 prebeta 5 from 4. May 2009
 
EAC extraction logfile from 8. December 2010, 18:51
 
Whitesnake / Greatest Hits
 
Used drive  : ASUS    DRW-1814BLT   Adapter: 2  ID: 1
 
Read mode               : Secure
Utilize accurate stream : Yes
Defeat audio cache      : Yes
Make use of C2 pointers : No
 
Read offset correction                      : 6
Overread into Lead-In and Lead-Out          : No
Fill up missing offset samples with silence : Yes
Delete leading and trailing silent blocks   : No
Null samples used in CRC calculations       : Yes
Used interface                              : Native Win32 interface for Win NT & 2000
 
Used output format              : User Defined Encoder
Selected bitrate                : 1024 kBit/s
Quality                         : High
Add ID3 tag                     : No
Command line compressor         : C:\Program Files\Exact Audio Copy\FLAC\FLAC.EXE
Additional command line options : -8 -V -T "ARTIST=%a" -T "TITLE=%t" -T "ALBUM=%g" -T "DATE=%y" -T "TRACKNUMBER=%n" -T "GENRE=%m" -T "COMMENT=%e" %s -o %d
 
TOC of the extracted CD
 
     Track |   Start  |  Length  | Start sector | End sector
    ---------------------------------------------------------
        1  |  0:00.32 |  6:38.50 |        32    |    29931
        2  |  6:39.07 |  3:53.45 |     29932    |    47451
        3  | 10:32.52 |  4:44.33 |     47452    |    68784
        4  | 15:17.10 |  4:17.40 |     68785    |    88099
        5  | 19:34.50 |  6:31.62 |     88100    |   117486
        6  | 26:06.37 |  4:12.38 |    117487    |   136424
        7  | 30:19.00 |  3:20.07 |    136425    |   151431
        8  | 33:39.07 |  6:09.38 |    151432    |   179144
        9  | 39:48.45 |  5:16.70 |    179145    |   202914
       10  | 45:05.40 |  4:10.72 |    202915    |   221736
       11  | 49:16.37 |  4:22.48 |    221737    |   241434
       12  | 53:39.10 |  5:36.40 |    241435    |   266674
       13  | 59:15.50 |  4:11.05 |    266675    |   285504
       14  | 63:26.55 |  4:35.02 |    285505    |   306131
 
Range status and errors
 
Selected range
 
     Filename D:\Раздачи на torrents.ru\Whitesnake - Greatest Hits\Whitesnake - Greatest Hits.wav
 
     Peak level 100.0 %
     Range quality 100.0 %
     Test CRC 45C57A83
     Copy CRC 45C57A83
     Copy OK
 
No errors occurred
 
AccurateRip summary
 
Track  1  accurately ripped (confidence 15)  [0C8E21B5]
Track  2  accurately ripped (confidence 15)  [B62F6874]
Track  3  accurately ripped (confidence 15)  [4B7E5495]
Track  4  accurately ripped (confidence 15)  [55DA9BEF]
Track  5  accurately ripped (confidence 15)  [D0E0CDD3]
Track  6  accurately ripped (confidence 15)  [3C07EE54]
Track  7  accurately ripped (confidence 15)  [F2FC16BC]
Track  8  accurately ripped (confidence 15)  [CB8F2F24]
Track  9  accurately ripped (confidence 14)  [72006EAB]
Track 10  accurately ripped (confidence 15)  [E3A887E0]
Track 11  accurately ripped (confidence 15)  [4732B27A]
Track 12  accurately ripped (confidence 15)  [8B42AFDF]
Track 13  accurately ripped (confidence 14)  [13F552D2]
Track 14  accurately ripped (confidence 13)  [36FE7607]
 
All tracks accurately ripped
 
End of status report
 
//////////////////////////////////////////////////////////////////////////////////////////////////////
 
-----------------------
 
DON'T MODIFY THIS FILE
 
-----------------------
 
PERFORMER: auCDtect Task Manager, ver. 1.5.1RC6 build 1.5.1.7
Copyright (c) 2008-2010 y-soft. All rights reserved
http://y-soft.org
 
ANALYZER: auCDtect: CD records authenticity detector, version 0.8.2
Copyright (c) 2004 Oleg Berngardt. All rights reserved.
Copyright (c) 2004 Alexander Djourik. All rights reserved.
 
 
FILE: Whitesnake - Greatest Hits.flac
  Size: 502237835 Hash: 734E319652CD1ED5482B074EAE5FB774 Accuracy: -m0
  Conclusion: CDDA 100%
  Signature: 897A62E70FDFAA827CF6AD252E8EE1AC3B542D6C
 
//////////////////////////////////////////////////////////////////////////////////////////////////
 

Всего записей: 2461 | Зарегистр. 01-12-2009 | Отправлено: 16:36 29-04-2013
Открыть новую тему     Написать ответ в эту тему

На первую страницук этому сообщениюк последнему сообщению

Компьютерный форум Ru.Board » Общие » Музыка и Кино » Музыка в lossless форматах (часть 5)


Реклама на форуме Ru.Board.

Powered by Ikonboard "v2.1.7b" © 2000 Ikonboard.com
Modified by Ru.Board
© Ru.Board 2000-2020

BitCoin: 1NGG1chHtUvrtEqjeerQCKDMUi6S6CG4iC

Рейтинг.ru