Перейти из форума на сайт.

НовостиФайловые архивы
ПоискАктивные темыТоп лист
ПравилаКто в on-line?
Вход Забыли пароль? Первый раз на этом сайте? Регистрация
Компьютерный форум Ru.Board » Общие » Музыка и Кино » Музыка в lossless форматах (часть 5)

Модерирует : PrincesskaMarishka, ULer

 Версия для печати • ПодписатьсяДобавить в закладки
На первую страницук этому сообщениюк последнему сообщению

Открыть новую тему     Написать ответ в эту тему

AMPIRUTYUN



Silver Member
Редактировать | Профиль | Сообщение | Цитировать | Сообщить модератору
Exact Audio Copy V1.0 beta 3 from 29. August 2011
 
EAC extraction logfile from 13. April 2013, 18:19
 
Whitesnake / The Silver Anniversary Collection 1978-2003 CD1
 
Used drive : Optiarc DVD RW AD-5280S Adapter: 2 ID: 1
 
Read mode : Secure
Utilize accurate stream : Yes
Defeat audio cache : Yes
Make use of C2 pointers : No
 
Read offset correction : 48
Overread into Lead-In and Lead-Out : No
Fill up missing offset samples with silence : Yes
Delete leading and trailing silent blocks : No
Null samples used in CRC calculations : Yes
Used interface : Installed external ASPI interface
 
Used output format : Internal WAV Routines
Sample format : 44.100 Hz; 16 Bit; Stereo
 
 
TOC of the extracted CD
 
 Track | Start | Length | Start sector | End sector  
 ---------------------------------------------------------
 1 | 0:00.00 | 4:18.72 | 0 | 19421  
 2 | 4:18.72 | 4:04.05 | 19422 | 37726  
 3 | 8:23.02 | 3:23.45 | 37727 | 52996  
 4 | 11:46.47 | 3:28.10 | 52997 | 68606  
 5 | 15:14.57 | 4:14.45 | 68607 | 87701  
 6 | 19:29.27 | 5:48.23 | 87702 | 113824  
 7 | 25:17.50 | 3:34.05 | 113825 | 129879  
 8 | 28:51.55 | 3:35.17 | 129880 | 146021  
 9 | 32:26.72 | 5:14.38 | 146022 | 169609  
 10 | 37:41.35 | 4:43.32 | 169610 | 190866  
 11 | 42:24.67 | 4:40.60 | 190867 | 211926  
 12 | 47:05.52 | 3:38.48 | 211927 | 228324  
 13 | 50:44.25 | 4:11.00 | 228325 | 247149  
 14 | 54:55.25 | 6:30.60 | 247150 | 276459  
 15 | 61:26.10 | 4:08.55 | 276460 | 295114  
 16 | 65:34.65 | 3:31.62 | 295115 | 311001  
 17 | 69:06.52 | 4:49.10 | 311002 | 332686  
 18 | 73:55.62 | 4:51.25 | 332687 | 354536  
 
 
Range status and errors
 
Selected range
 
 Filename C:\rip-flacmusic.ru\Whitesnake - The Silver Anniversary Collection 1978-2003 CD1.wav
 
 Peak level 100.0 %
 Extraction speed 4.7 X
 Range quality 100.0 %
 Test CRC 0E267F0D
 Copy CRC 0E267F0D
 Copy OK
 
No errors occurred
 
 
AccurateRip summary
 
Track 1 cannot be verified as accurate (confidence 26) [87459995], AccurateRip returned [ACC66C39] (AR v2)
Track 2 accurately ripped (confidence 2) [1E8222B8] (AR v1)
Track 3 accurately ripped (confidence 2) [286A55CD] (AR v1)
Track 4 accurately ripped (confidence 2) [0B21925B] (AR v1)
Track 5 accurately ripped (confidence 2) [EA8F5E5E] (AR v1)
Track 6 accurately ripped (confidence 2) [7AA8D789] (AR v1)
Track 7 accurately ripped (confidence 2) [6633D9F7] (AR v1)
Track 8 accurately ripped (confidence 2) [A03DC994] (AR v1)
Track 9 accurately ripped (confidence 2) [9EDC07D1] (AR v1)
Track 10 accurately ripped (confidence 2) [57453BA1] (AR v1)
Track 11 accurately ripped (confidence 2) [38527CE1] (AR v1)
Track 12 accurately ripped (confidence 2) [53049F4E] (AR v1)
Track 13 accurately ripped (confidence 2) [2826B114] (AR v1)
Track 14 accurately ripped (confidence 2) [9094129F] (AR v1)
Track 15 accurately ripped (confidence 2) [1E7DBBCE] (AR v1)
Track 16 accurately ripped (confidence 2) [18C0033B] (AR v1)
Track 17 accurately ripped (confidence 2) [5C1D43FF] (AR v1)
Track 18 accurately ripped (confidence 2) [E8CA5484] (AR v1)
 
17 трек(и) скопированы точно
 1 трек(и) не удалось проверить на точность
 
Some tracks could not be verified as accurate
 
End of status report
 
==== Log checksum 7CB86983752C147A6A78E66F57C932A5AEAC228C7E042892A0FF37F544617EA1 ====
 
/////////////////////////////////////////////////////////////////////////////////////////
 
Exact Audio Copy V1.0 beta 3 from 29. August 2011
 
EAC extraction logfile from 13. April 2013, 3:12
 
Whitesnake / The Silver Anniversary Collection 1978-2003 CD2
 
Used drive : Optiarc DVD RW AD-5280S Adapter: 2 ID: 1
 
Read mode : Secure
Utilize accurate stream : Yes
Defeat audio cache : Yes
Make use of C2 pointers : No
 
Read offset correction : 48
Overread into Lead-In and Lead-Out : No
Fill up missing offset samples with silence : Yes
Delete leading and trailing silent blocks : No
Null samples used in CRC calculations : Yes
Used interface : Installed external ASPI interface
 
Used output format : Internal WAV Routines
Sample format : 44.100 Hz; 16 Bit; Stereo
 
 
TOC of the extracted CD
 
 Track | Start | Length | Start sector | End sector  
 ---------------------------------------------------------
 1 | 0:00.00 | 1:16.30 | 0 | 5729  
 2 | 1:16.30 | 5:49.45 | 5730 | 31949  
 3 | 7:06.00 | 4:13.47 | 31950 | 50971  
 4 | 11:19.47 | 4:53.08 | 50972 | 72954  
 5 | 16:12.55 | 3:25.10 | 72955 | 88339  
 6 | 19:37.65 | 4:20.35 | 88340 | 107874  
 7 | 23:58.25 | 5:08.22 | 107875 | 130996  
 8 | 29:06.47 | 3:46.00 | 130997 | 147946  
 9 | 32:52.47 | 5:45.53 | 147947 | 173874  
 10 | 38:38.25 | 5:51.70 | 173875 | 200269  
 11 | 44:30.20 | 4:54.30 | 200270 | 222349  
 12 | 49:24.50 | 3:58.45 | 222350 | 240244  
 13 | 53:23.20 | 3:29.20 | 240245 | 255939  
 14 | 56:52.40 | 4:29.57 | 255940 | 276171  
 15 | 61:22.22 | 5:07.55 | 276172 | 299251  
 16 | 66:30.02 | 4:33.30 | 299252 | 319756  
 17 | 71:03.32 | 6:38.58 | 319757 | 349664  
 18 | 77:42.15 | 1:34.10 | 349665 | 356724  
 
 
Range status and errors
 
Selected range
 
 Filename C:\rip-flacmusic.ru\Whitesnake - The Silver Anniversary Collection 1978-2003 CD2.wav
 
 Peak level 100.0 %
 Extraction speed 4.7 X
 Range quality 100.0 %
 Test CRC 8E7F6E6D
 Copy CRC 8E7F6E6D
 Copy OK
 
No errors occurred
 
 
AccurateRip summary
 
Track 1 accurately ripped (confidence 2) [3A36B44C] (AR v1)
Track 2 accurately ripped (confidence 2) [80D238D6] (AR v1)
Track 3 accurately ripped (confidence 2) [F19F8C2E] (AR v1)
Track 4 accurately ripped (confidence 2) [BC004912] (AR v1)
Track 5 accurately ripped (confidence 2) [72BDABAD] (AR v1)
Track 6 accurately ripped (confidence 2) [5C39F1E3] (AR v1)
Track 7 accurately ripped (confidence 2) [FB8E0A99] (AR v1)
Track 8 accurately ripped (confidence 2) [E072DFAB] (AR v1)
Track 9 accurately ripped (confidence 2) [AD226653] (AR v1)
Track 10 accurately ripped (confidence 2) [C47DA269] (AR v1)
Track 11 accurately ripped (confidence 2) [E77236B3] (AR v1)
Track 12 accurately ripped (confidence 2) [A07B3B29] (AR v1)
Track 13 accurately ripped (confidence 2) [245A71A3] (AR v1)
Track 14 accurately ripped (confidence 2) [DBD8647E] (AR v1)
Track 15 accurately ripped (confidence 2) [FF6D8DC1] (AR v1)
Track 16 accurately ripped (confidence 2) [E5CE427A] (AR v1)
Track 17 accurately ripped (confidence 2) [511DB3B3] (AR v1)
Track 18 accurately ripped (confidence 2) [64B83BA0] (AR v1)
 
All tracks accurately ripped
 
End of status report
 
==== Log checksum 770857EC4A97F6FF368F6D6AE7CA9BF3C6E11F62CB7B23397C23DEBCA11E37FF ====
 
############################################################
 
-----------------------
 
DON'T MODIFY THIS FILE
 
-----------------------
 
PERFORMER: auCDtect Task Manager, ver. 1.5.1RC6 build 1.5.1.7
Copyright (c) 2008-2010 y-soft. All rights reserved
http://y-soft.org
 
ANALYZER: auCDtect: CD records authenticity detector, version 0.8.2
Copyright (c) 2004 Oleg Berngardt. All rights reserved.
Copyright (c) 2004 Alexander Djourik. All rights reserved.
 
 
FILE: Whitesnake - The Silver Anniversary Collection 1978-2003 CD1.flac
  Size: 561703538 Hash: 40BB81E41EBEAF80214A18792A6B954F Accuracy: -m0
  Conclusion: CDDA 100%
  Signature: 9A38251FA7587B5ECE6D8DE207D35CCB23405FF3
 
//////////////////////////////////////////////////////////////////////////////
 
-----------------------
 
DON'T MODIFY THIS FILE
 
-----------------------
 
PERFORMER: auCDtect Task Manager, ver. 1.5.1RC6 build 1.5.1.7
Copyright (c) 2008-2010 y-soft. All rights reserved
http://y-soft.org
 
ANALYZER: auCDtect: CD records authenticity detector, version 0.8.2
Copyright (c) 2004 Oleg Berngardt. All rights reserved.
Copyright (c) 2004 Alexander Djourik. All rights reserved.
 
 
FILE: Whitesnake - The Silver Anniversary Collection 1978-2003 CD2.flac
  Size: 558266624 Hash: 668809086E07CD6CA431E61BDC19929B Accuracy: -m0
  Conclusion: CDDA 100%
  Signature: 7ED508A3B095377A3442A9249318A3BEA313F066
 
################################################################
 
 

Всего записей: 2461 | Зарегистр. 01-12-2009 | Отправлено: 01:43 30-04-2013
Открыть новую тему     Написать ответ в эту тему

На первую страницук этому сообщениюк последнему сообщению

Компьютерный форум Ru.Board » Общие » Музыка и Кино » Музыка в lossless форматах (часть 5)


Реклама на форуме Ru.Board.

Powered by Ikonboard "v2.1.7b" © 2000 Ikonboard.com
Modified by Ru.Board
© Ru.Board 2000-2020

BitCoin: 1NGG1chHtUvrtEqjeerQCKDMUi6S6CG4iC

Рейтинг.ru