Перейти из форума на сайт.

НовостиФайловые архивы
ПоискАктивные темыТоп лист
ПравилаКто в on-line?
Вход Забыли пароль? Первый раз на этом сайте? Регистрация
Компьютерный форум Ru.Board » Общие » Музыка и Кино » Музыка в lossless форматах (часть 5)

Модерирует : PrincesskaMarishka, ULer

 Версия для печати • ПодписатьсяДобавить в закладки
На первую страницук этому сообщениюк последнему сообщению

Открыть новую тему     Написать ответ в эту тему

AMPIRUTYUN



Silver Member
Редактировать | Профиль | Сообщение | Цитировать | Сообщить модератору
Exact Audio Copy V1.0 beta 3 from 29. August 2011
 
EAC extraction logfile from 12. April 2013, 9:07
 
Celine Dion / All The Way... A Decade Of Song
 
Used drive : Optiarc DVD RW AD-5280S Adapter: 2 ID: 1
 
Read mode : Secure
Utilize accurate stream : Yes
Defeat audio cache : Yes
Make use of C2 pointers : No
 
Read offset correction : 48
Overread into Lead-In and Lead-Out : No
Fill up missing offset samples with silence : Yes
Delete leading and trailing silent blocks : No
Null samples used in CRC calculations : Yes
Used interface : Installed external ASPI interface
 
Used output format : Internal WAV Routines
Sample format : 44.100 Hz; 16 Bit; Stereo
 
 
TOC of the extracted CD
 
 Track | Start | Length | Start sector | End sector  
 ---------------------------------------------------------
 1 | 0:00.00 | 4:47.69 | 0 | 21593  
 2 | 4:47.69 | 3:55.13 | 21594 | 39231  
 3 | 8:43.07 | 4:04.68 | 39232 | 57599  
 4 | 12:48.00 | 4:35.25 | 57600 | 78249  
 5 | 17:23.25 | 5:32.02 | 78250 | 103151  
 6 | 22:55.27 | 4:01.48 | 103152 | 121274  
 7 | 26:57.00 | 4:41.55 | 121275 | 142404  
 8 | 31:38.55 | 4:42.62 | 142405 | 163616  
 9 | 36:21.42 | 5:31.10 | 163617 | 188451  
 10 | 41:52.52 | 4:03.08 | 188452 | 206684  
 11 | 45:55.60 | 5:19.62 | 206685 | 230671  
 12 | 51:15.47 | 4:09.05 | 230672 | 249351  
 13 | 55:24.52 | 3:53.23 | 249352 | 266849  
 14 | 59:18.00 | 4:11.65 | 266850 | 285739  
 15 | 63:29.65 | 4:36.05 | 285740 | 306444  
 16 | 68:05.70 | 3:58.15 | 306445 | 324309  
 
 
Range status and errors
 
Selected range
 
 Filename C:\rip-flacmusic.ru\Celine Dion - All The Way... A Decade Of Song.wav
 
 Peak level 99.8 %
 Extraction speed 4.6 X
 Range quality 100.0 %
 Test CRC 10138A51
 Copy CRC 10138A51
 Copy OK
 
No errors occurred
 
 
AccurateRip summary
 
Track 1 accurately ripped (confidence 8) [A4A24BE3] (AR v2)
Track 2 accurately ripped (confidence 8) [280013D6] (AR v2)
Track 3 accurately ripped (confidence 8) [CECF4B4E] (AR v2)
Track 4 accurately ripped (confidence 8) [F7B0D882] (AR v2)
Track 5 accurately ripped (confidence 8) [5079C2EC] (AR v2)
Track 6 accurately ripped (confidence 8) [B271062E] (AR v2)
Track 7 accurately ripped (confidence 7) [8D06B1E6] (AR v2)
Track 8 accurately ripped (confidence 8) [ED9C92C2] (AR v2)
Track 9 accurately ripped (confidence 8) [04BC4D44] (AR v2)
Track 10 accurately ripped (confidence 8) [614F3255] (AR v2)
Track 11 accurately ripped (confidence 7) [A04BDB16] (AR v2)
Track 12 accurately ripped (confidence 8) [70C710D5] (AR v2)
Track 13 accurately ripped (confidence 8) [271CEAB9] (AR v2)
Track 14 accurately ripped (confidence 8) [003EC801] (AR v2)
Track 15 accurately ripped (confidence 7) [059FE79F] (AR v2)
Track 16 accurately ripped (confidence 8) [F449D69B] (AR v2)
 
All tracks accurately ripped
 
End of status report
 
==== Log checksum CD02228688B5CE4B9CFD14E30A4740781028FAC7CB3EA057A110EFD3578AF84B ====
 
///////////////////////////////////////////////////////////////////////////////////////////////////////
 
-----------------------
 
DON'T MODIFY THIS FILE
 
-----------------------
 
PERFORMER: auCDtect Task Manager, ver. 1.5.1RC6 build 1.5.1.7
Copyright (c) 2008-2010 y-soft. All rights reserved
http://y-soft.org
 
ANALYZER: auCDtect: CD records authenticity detector, version 0.8.2
Copyright (c) 2004 Oleg Berngardt. All rights reserved.
Copyright (c) 2004 Alexander Djourik. All rights reserved.
 
 
FILE: Celine Dion - All The Way... A Decade Of Song.flac
  Size: 475707386 Hash: B4031DAEDEC0EAB088C6D7838C42A118 Accuracy: -m0
  Conclusion: CDDA 100%
  Signature: 1A2760A4E56F3520282DE0E8EE02E61AA4D8E973
 
//////////////////////////////////////////////////////////////////////////////////////////////////
 

Всего записей: 2461 | Зарегистр. 01-12-2009 | Отправлено: 18:07 01-05-2013 | Исправлено: AMPIRUTYUN, 18:08 01-05-2013
Открыть новую тему     Написать ответ в эту тему

На первую страницук этому сообщениюк последнему сообщению

Компьютерный форум Ru.Board » Общие » Музыка и Кино » Музыка в lossless форматах (часть 5)


Реклама на форуме Ru.Board.

Powered by Ikonboard "v2.1.7b" © 2000 Ikonboard.com
Modified by Ru.Board
© Ru.Board 2000-2020

BitCoin: 1NGG1chHtUvrtEqjeerQCKDMUi6S6CG4iC

Рейтинг.ru