Перейти из форума на сайт.

НовостиФайловые архивы
ПоискАктивные темыТоп лист
ПравилаКто в on-line?
Вход Забыли пароль? Первый раз на этом сайте? Регистрация
Компьютерный форум Ru.Board » Общие » Музыка и Кино » Музыка в lossless форматах (часть 5)

Модерирует : PrincesskaMarishka, ULer

 Версия для печати • ПодписатьсяДобавить в закладки
На первую страницук этому сообщениюк последнему сообщению

Открыть новую тему     Написать ответ в эту тему

AMPIRUTYUN



Silver Member
Редактировать | Профиль | Сообщение | Цитировать | Сообщить модератору
Exact Audio Copy V1.0 beta 3 from 29. August 2011
 
EAC extraction logfile from 12. February 2012, 2:15
 
Lisa Stansfield / So Natural
 
Used drive  : PLEXTOR DVDR   PX-716A   Adapter: 0  ID: 0
 
Read mode               : Secure
Utilize accurate stream : Yes
Defeat audio cache      : Yes
Make use of C2 pointers : No
 
Read offset correction                      : 30
Overread into Lead-In and Lead-Out          : Yes
Fill up missing offset samples with silence : Yes
Delete leading and trailing silent blocks   : No
Null samples used in CRC calculations       : Yes
Used interface                              : Native Win32 interface for Win NT & 2000
 
Used output format              : User Defined Encoder
Selected bitrate                : 1024 kBit/s
Quality                         : High
Add ID3 tag                     : No
Command line compressor         : C:\Program Files (x86)\FLAC\flac.exe
Additional command line options : -8 -V -T "ARTIST=%artist%" -T "TITLE=%title%" -T "ALBUM=%albumtitle%" -T "DATE=%year%" -T "TRACKNUMBER=%tracknr%" -T "GENRE=%genre%" -T "COMMENT=EAC FLAC -8" %source%
 
TOC of the extracted CD
 
     Track |   Start  |  Length  | Start sector | End sector
    ---------------------------------------------------------
        1  |  0:00.37 |  5:06.40 |        37    |    23026
        2  |  5:07.02 |  5:01.57 |     23027    |    45658
        3  | 10:08.59 |  4:40.60 |     45659    |    66718
        4  | 14:49.44 |  4:16.48 |     66719    |    85966
        5  | 19:06.17 |  4:37.32 |     85967    |   106773
        6  | 23:43.49 |  4:29.25 |    106774    |   126973
        7  | 28:12.74 |  5:34.10 |    126974    |   152033
        8  | 33:47.09 |  5:05.58 |    152034    |   174966
        9  | 38:52.67 |  4:35.02 |    174967    |   195593
       10  | 43:27.69 |  4:41.43 |    195594    |   216711
       11  | 48:09.37 |  4:33.27 |    216712    |   237213
       12  | 52:42.64 |  6:03.68 |    237214    |   264506
       13  | 58:46.57 |  4:45.27 |    264507    |   285908
       14  | 63:32.09 |  3:55.28 |    285909    |   303561
 
Range status and errors
 
Selected range
 
     Filename E:\mtorrent_flac\Lisa Stansfield - So Natural (Japan)\Lisa Stansfield - So Natural.wav
 
     Peak level 100.0 %
     Extraction speed 1.7 X
     Range quality 100.0 %
     Test CRC 4EA2847E
     Copy CRC 4EA2847E
     Copy OK
 
No errors occurred
 
AccurateRip summary
 
Track  1  accurately ripped (confidence 2)  [D658A059]  (AR v1)
Track  2  accurately ripped (confidence 2)  [C4844E66]  (AR v1)
Track  3  accurately ripped (confidence 2)  [42679FB4]  (AR v1)
Track  4  accurately ripped (confidence 2)  [48B1226F]  (AR v1)
Track  5  accurately ripped (confidence 2)  [69B80E43]  (AR v1)
Track  6  accurately ripped (confidence 2)  [3F5C3355]  (AR v1)
Track  7  accurately ripped (confidence 2)  [5EC08AE6]  (AR v1)
Track  8  accurately ripped (confidence 2)  [CE115BA4]  (AR v1)
Track  9  accurately ripped (confidence 2)  [7F2770D9]  (AR v1)
Track 10  accurately ripped (confidence 2)  [ADBE7050]  (AR v1)
Track 11  accurately ripped (confidence 2)  [211768C7]  (AR v1)
Track 12  accurately ripped (confidence 2)  [7BDEBD08]  (AR v1)
Track 13  accurately ripped (confidence 2)  [A78098C9]  (AR v1)
Track 14  accurately ripped (confidence 2)  [E4393054]  (AR v1)
 
All tracks accurately ripped
 
End of status report
 
---- CUETools DB Plugin V2.1.3
 
[CTDB TOCID: kYzZxdMzang2xq0Dz3RaqpypmHM-] disk not present in database, Submit result: discs with pregaps not supported in this protocol version
 
==== Log checksum A75156EF5E8F11EC4B86BF97AE75841BE9088318B7AAE4D87A680A71D1C4A185 ====
 
//////////////////////////////////////////////////////////////////////////////////////////////////////////////////
 
-----------------------
 
DON'T MODIFY THIS FILE
 
-----------------------
 
PERFORMER: auCDtect Task Manager, ver. 1.5.1RC6 build 1.5.1.7
Copyright (c) 2008-2010 y-soft. All rights reserved
http://y-soft.org
 
ANALYZER: auCDtect: CD records authenticity detector, version 0.8.2
Copyright (c) 2004 Oleg Berngardt. All rights reserved.
Copyright (c) 2004 Alexander Djourik. All rights reserved.
 
 
FILE: Lisa Stansfield - So Natural.flac
  Size: 407207375 Hash: EAFFE80603DBFBC168ADF9C787FD1134 Accuracy: -m0
  Conclusion: CDDA 100%
  Signature: B88E4B3466A4A44EA99AE4268CD6DAEBF879A066
 
/////////////////////////////////////////////////////////////////////////////////////////////////////
 

Всего записей: 2461 | Зарегистр. 01-12-2009 | Отправлено: 00:43 03-05-2013 | Исправлено: AMPIRUTYUN, 00:43 03-05-2013
Открыть новую тему     Написать ответ в эту тему

На первую страницук этому сообщениюк последнему сообщению

Компьютерный форум Ru.Board » Общие » Музыка и Кино » Музыка в lossless форматах (часть 5)


Реклама на форуме Ru.Board.

Powered by Ikonboard "v2.1.7b" © 2000 Ikonboard.com
Modified by Ru.Board
© Ru.Board 2000-2020

BitCoin: 1NGG1chHtUvrtEqjeerQCKDMUi6S6CG4iC

Рейтинг.ru