Перейти из форума на сайт.

НовостиФайловые архивы
ПоискАктивные темыТоп лист
ПравилаКто в on-line?
Вход Забыли пароль? Первый раз на этом сайте? Регистрация
Компьютерный форум Ru.Board » Общие » Музыка и Кино » Музыка в lossless форматах (часть 5)

Модерирует : PrincesskaMarishka, ULer

 Версия для печати • ПодписатьсяДобавить в закладки
На первую страницук этому сообщениюк последнему сообщению

Открыть новую тему     Написать ответ в эту тему

AMPIRUTYUN



Silver Member
Редактировать | Профиль | Сообщение | Цитировать | Сообщить модератору
Exact Audio Copy V0.99 prebeta 5 from 4. May 2009
 
EAC extraction logfile from 20. April 2010, 20:55
 
Lionel Richie / Lionel Richie (Original CD Edition)
 
Used drive  : ASUS    DRW-1608P   Adapter: 2  ID: 1
 
Read mode               : Secure
Utilize accurate stream : Yes
Defeat audio cache      : Yes
Make use of C2 pointers : No
 
Read offset correction                      : 48
Overread into Lead-In and Lead-Out          : No
Fill up missing offset samples with silence : Yes
Delete leading and trailing silent blocks   : No
Null samples used in CRC calculations       : Yes
Used interface                              : Installed external ASPI interface
 
Used output format              : User Defined Encoder
Selected bitrate                : 1024 kBit/s
Quality                         : High
Add ID3 tag                     : No
Command line compressor         : C:\Program Files (x86)\Exact Audio Copy\Flac\flac.exe
Additional command line options : -5 -V -T "ARTIST=%a" -T "TITLE=%t" -T "ALBUM=%g" -T "DATE=%y" -T "TRACKNUMBER=%n" -T "GENRE=%m" -T "COMMENT=EAC FLAC -5" %s
 
 
TOC of the extracted CD
 
     Track |   Start  |  Length  | Start sector | End sector  
    ---------------------------------------------------------
        1  |  0:00.33 |  5:14.45 |        33    |    23627    
        2  |  5:15.03 |  5:36.02 |     23628    |    48829    
        3  | 10:51.05 |  5:33.18 |     48830    |    73822    
        4  | 16:24.23 |  4:08.67 |     73823    |    92489    
        5  | 20:33.15 |  4:56.55 |     92490    |   114744    
        6  | 25:29.70 |  3:24.05 |    114745    |   130049    
        7  | 28:54.00 |  5:05.18 |    130050    |   152942    
        8  | 33:59.18 |  3:07.62 |    152943    |   167029    
        9  | 37:07.05 |  1:24.38 |    167030    |   173367    
 
 
Range status and errors
 
Selected range
 
     Filename F:\Lionel Richie - Lionel Richie - 1982\Lionel Richie - Lionel Richie (Original CD Edition).wav
 
     Peak level 96.3 %
     Range quality 100.0 %
     Test CRC B3BE4428
     Copy CRC B3BE4428
     Copy OK
 
No errors occurred
 
 
AccurateRip summary
 
Track  1  accurately ripped (confidence 4)  [CC683CB6]
Track  2  accurately ripped (confidence 4)  [30521526]
Track  3  accurately ripped (confidence 4)  [691F7082]
Track  4  accurately ripped (confidence 4)  [0F1B6093]
Track  5  accurately ripped (confidence 4)  [C6DCA33E]
Track  6  accurately ripped (confidence 4)  [59FD6F3B]
Track  7  accurately ripped (confidence 4)  [8974CF05]
Track  8  accurately ripped (confidence 4)  [1A6A2998]
Track  9  accurately ripped (confidence 4)  [E95B9D9F]
 
All tracks accurately ripped
 
End of status report
 
////////////////////////////////////////////////////////////////////////////////////
 
-----------------------
 
DON'T MODIFY THIS FILE
 
-----------------------
 
PERFORMER: auCDtect Task Manager, ver. 1.6.0 RC1 build 1.6.0.1
Copyright (c) 2008-2010 y-soft. All rights reserved
http://y-soft.org
 
ANALYZER: auCDtect: CD records authenticity detector, version 0.8.2
Copyright (c) 2004 Oleg Berngardt. All rights reserved.
Copyright (c) 2004 Alexander Djourik. All rights reserved.
 
 
FILE: Lionel Richie - Lionel Richie (Original CD Edition).flac
  Size: 215532836 Hash: 63CCF18C0A7CEAE162E30FAA5E821C9F Accuracy: -m0
  Conclusion: MPEG 95%
  Signature: 5C9B422B300FCDE997AAF92A91202DC23ECD3E01
 
////////////////////////////////////////////////////////////////////////////////////////////
 
foobar2000 1.2.5 / Dynamic Range Meter 1.1.1
log date: 2013-05-18 22:11:55
 
--------------------------------------------------------------------------------
Analyzed: Lionel Richie / Lionel Richie (Original CD Edition)
--------------------------------------------------------------------------------
 
DR         Peak         RMS     Duration Track
--------------------------------------------------------------------------------
DR14      -0.68 dB   -17.25 dB      5:15 01-Serves You Right
DR15      -0.32 dB   -20.31 dB      5:36 02-Wandering Stranger
DR15      -0.78 dB   -17.83 dB      5:33 03-Tell Me
DR14      -0.67 dB   -20.20 dB      4:09 04-My Love
DR14      -1.06 dB   -18.10 dB      4:57 05-Round And Round
DR12      -1.38 dB   -19.40 dB      3:24 06-Truly
DR14      -0.73 dB   -18.42 dB      5:05 07-You Are
DR14      -0.41 dB   -20.78 dB      3:08 08-You Mean More To Me
DR13      -3.80 dB   -21.83 dB      1:25 09-Just Put Some Love In Your Heart
--------------------------------------------------------------------------------
 
Number of tracks:  9
Official DR value: DR14
 
Samplerate:        44100 Hz
Channels:          2
Bits per sample:   16
Bitrate:           746 kbps
Codec:             FLAC
================================================================================
 
////////////////////////////////////////////////////////////////////////////////////////
 

Всего записей: 2461 | Зарегистр. 01-12-2009 | Отправлено: 12:30 23-06-2013
Открыть новую тему     Написать ответ в эту тему

На первую страницук этому сообщениюк последнему сообщению

Компьютерный форум Ru.Board » Общие » Музыка и Кино » Музыка в lossless форматах (часть 5)


Реклама на форуме Ru.Board.

Powered by Ikonboard "v2.1.7b" © 2000 Ikonboard.com
Modified by Ru.Board
© Ru.Board 2000-2020

BitCoin: 1NGG1chHtUvrtEqjeerQCKDMUi6S6CG4iC

Рейтинг.ru