Перейти из форума на сайт.

НовостиФайловые архивы
ПоискАктивные темыТоп лист
ПравилаКто в on-line?
Вход Забыли пароль? Первый раз на этом сайте? Регистрация
Компьютерный форум Ru.Board » Общие » Музыка и Кино » Музыка в lossless форматах (часть 5)

Модерирует : PrincesskaMarishka, ULer

 Версия для печати • ПодписатьсяДобавить в закладки
На первую страницук этому сообщениюк последнему сообщению

Открыть новую тему     Написать ответ в эту тему

AMPIRUTYUN



Silver Member
Редактировать | Профиль | Сообщение | Цитировать | Сообщить модератору
Exact Audio Copy V1.0 beta 3 from 29. August 2011
 
Отчёт EAC об извлечении, выполненном 19. октября 2012, 18:24
 
Lionel Richie / Truly-The Love Songs
 
Дисковод: Optiarc DVD RW AD-5280S   Adapter: 2  ID: 1
 
Режим чтения                 : Достоверность
Использование точного потока : Да
Отключение кэша аудио        : Да
Использование указателей C2  : Нет
 
Коррекция смещения при чтении                     : 48
Способность читать области Lead-in и Lead-out     : Нет
Заполнение пропущенных сэмплов тишиной            : Да
Удаление блоков с тишиной в начале и конце        : Нет
При вычислениях CRC использовались нулевые сэмплы : Да
Интерфейс                                         : Установленный внешний ASPI-интерфейс
 
Выходной формат : Внутренние WAV-операции
Формат сэмплов  : 44.100 Гц; 16 бит; стерео
 
 
TOC извлечённого CD
 
     Трек |   Старт  | Длительность | Начальный сектор | Конечный сектор  
    ---------------------------------------------------------------------
       1  |  0:00.00 |    4:50.17   |           0      |      21766      
       2  |  4:50.17 |    4:26.48   |       21767      |      41764      
       3  |  9:16.65 |    3:38.35   |       41765      |      58149      
       4  | 12:55.25 |    4:58.70   |       58150      |      80569      
       5  | 17:54.20 |    4:09.50   |       80570      |      99294      
       6  | 22:03.70 |    3:59.05   |       99295      |     117224      
       7  | 26:03.00 |    4:15.12   |      117225      |     136361      
       8  | 30:18.12 |    4:03.03   |      136362      |     154589      
       9  | 34:21.15 |    6:03.05   |      154590      |     181819      
      10  | 40:24.20 |    3:47.45   |      181820      |     198889      
      11  | 44:11.65 |    3:21.62   |      198890      |     214026      
      12  | 47:33.52 |    3:44.03   |      214027      |     230829      
      13  | 51:17.55 |    4:18.00   |      230830      |     250179      
      14  | 55:35.55 |    3:27.00   |      250180      |     265704      
      15  | 59:02.55 |    3:39.00   |      265705      |     282129      
      16  | 62:41.55 |    4:33.17   |      282130      |     302621      
      17  | 67:14.72 |    3:02.58   |      302622      |     316329      
      18  | 70:17.55 |    3:30.55   |      316330      |     332134      
      19  | 73:48.35 |    3:15.62   |      332135      |     346821      
 
 
Характеристики диапазона извлечения и сообщения об ошибках
 
Выбранный диапазон
 
     Имя файла C:\rip-flacmusic.ru\Lionel Richie - Truly-The Love Songs.wav
 
     Пиковый уровень 100.0 %
     Скорость извлечения 4.6 X
     Качество диапазона 100.0 %
     CRC теста CE9F4279
     CRC копии CE9F4279
     Копирование... OK
 
Ошибок не произошло
 
 
AccurateRip: сводка
 
Трек  1  : извлечено точно (доверие 3)  [10A22D20]  (AR v1)
Трек  2  : извлечено точно (доверие 3)  [6F2A5C10]  (AR v1)
Трек  3  : извлечено точно (доверие 3)  [C42165C5]  (AR v1)
Трек  4  : извлечено точно (доверие 3)  [079228B8]  (AR v1)
Трек  5  : извлечено точно (доверие 3)  [A4E8CFFF]  (AR v1)
Трек  6  : извлечено точно (доверие 3)  [4C4A2F1C]  (AR v1)
Трек  7  : извлечено точно (доверие 3)  [0D3DA95A]  (AR v1)
Трек  8  : извлечено точно (доверие 3)  [F96E1C66]  (AR v1)
Трек  9  : извлечено точно (доверие 3)  [317B2CF7]  (AR v1)
Трек 10  : извлечено точно (доверие 3)  [B0F80B26]  (AR v1)
Трек 11  : извлечено точно (доверие 3)  [C451B294]  (AR v1)
Трек 12  : извлечено точно (доверие 3)  [8DC8C279]  (AR v1)
Трек 13  : извлечено точно (доверие 3)  [3DFF2890]  (AR v1)
Трек 14  : извлечено точно (доверие 3)  [0FAF57E7]  (AR v1)
Трек 15  : извлечено точно (доверие 3)  [F96E160B]  (AR v1)
Трек 16  : извлечено точно (доверие 3)  [D572DF9C]  (AR v1)
Трек 17  : извлечено точно (доверие 3)  [6ADF54CB]  (AR v1)
Трек 18  : извлечено точно (доверие 3)  [6B50152B]  (AR v1)
Трек 19  : извлечено точно (доверие 3)  [783EE968]  (AR v1)
 
Все треки извлечены точно
 
Конец отчёта
 
==== Контрольная сумма отчёта 8F2EB0A6AB969DD1F40512DDFA0D1ACECE7951DD39DE13058D4A1740E899E0DD ====
 
//////////////////////////////////////////////////////////////////////////////////////////
 
-----------------------
 
DON'T MODIFY THIS FILE
 
-----------------------
 
PERFORMER: auCDtect Task Manager, ver. 1.6.0 RC1 build 1.6.0.1
Copyright (c) 2008-2010 y-soft. All rights reserved
http://y-soft.org
 
ANALYZER: auCDtect: CD records authenticity detector, version 0.8.2
Copyright (c) 2004 Oleg Berngardt. All rights reserved.
Copyright (c) 2004 Alexander Djourik. All rights reserved.
 
 
FILE: Lionel Richie - Truly-The Love Songs.flac
  Size: 478570691 Hash: BD0AD18FC83A3656FA2BB701BEB50714 Accuracy: -m0
  Conclusion: CDDA 99%
  Signature: 17AC29E947E2A6176C02FDA5559E95FE4E2761C6
 
////////////////////////////////////////////////////////////////////////////////////
 
foobar2000 1.2.5 / Dynamic Range Meter 1.1.1
log date: 2013-06-21 23:35:00
 
--------------------------------------------------------------------------------
Analyzed: Lionel Richie / Truly-The Love Songs
--------------------------------------------------------------------------------
 
DR         Peak         RMS     Duration Track
--------------------------------------------------------------------------------
DR10      -1.50 dB   -12.91 dB      4:50 01-My Destiny
DR11      -0.15 dB   -14.96 dB      4:27 02-Endless Love (With Diana Ross)
DR12      -0.27 dB   -15.93 dB      3:38 03-Three Times A Lady (With The Commodores)
DR6       -4.18 dB   -13.41 dB      4:59 04-Don't Wanna Lose You
DR11      -0.09 dB   -14.13 dB      4:10 05-Hello
DR11      -0.38 dB   -14.70 dB      3:59 06-Sail On (With The Commodores)
DR12      -0.37 dB   -15.08 dB      4:15 07-Easy (With The Commodores)
DR12       0.00 dB   -14.98 dB      4:03 08-Say You, Say Me
DR10       0.00 dB   -12.00 dB      6:03 09-Do It To Me
DR11      -0.29 dB   -13.48 dB      3:48 10-Penny Lover
DR10       0.00 dB   -14.20 dB      3:22 11-Truly
DR9        0.00 dB   -12.63 dB      3:44 12-Still (With The Commodores)
DR13       0.00 dB   -14.65 dB      4:18 13-Love Will Conquer All
DR13       0.00 dB   -15.97 dB      3:27 14-Sweet Love (With The Commodores)
DR10      -0.31 dB   -13.79 dB      3:39 15-Ballerina Girl
DR7       -0.01 dB   -14.31 dB      4:33 16-Still In Love
DR12      -0.50 dB   -16.78 dB      3:03 17-Oh No (With The Commodores)
DR12       0.00 dB   -14.54 dB      3:31 18-Just To Be Close To You (With The Commodores)
DR14       0.00 dB   -17.06 dB      3:16 19-Stuck On You
--------------------------------------------------------------------------------
 
Number of tracks:  19
Official DR value: DR11
 
Samplerate:        44100 Hz
Channels:          2
Bits per sample:   16
Bitrate:           828 kbps
Codec:             FLAC
================================================================================
 
/////////////////////////////////////////////////////////////////////////////////
 

Всего записей: 2461 | Зарегистр. 01-12-2009 | Отправлено: 01:32 26-06-2013
Открыть новую тему     Написать ответ в эту тему

На первую страницук этому сообщениюк последнему сообщению

Компьютерный форум Ru.Board » Общие » Музыка и Кино » Музыка в lossless форматах (часть 5)


Реклама на форуме Ru.Board.

Powered by Ikonboard "v2.1.7b" © 2000 Ikonboard.com
Modified by Ru.Board
© Ru.Board 2000-2020

BitCoin: 1NGG1chHtUvrtEqjeerQCKDMUi6S6CG4iC

Рейтинг.ru