Перейти из форума на сайт.

НовостиФайловые архивы
ПоискАктивные темыТоп лист
ПравилаКто в on-line?
Вход Забыли пароль? Первый раз на этом сайте? Регистрация
Компьютерный форум Ru.Board » Общие » Музыка и Кино » Музыка в lossless форматах (часть 5)

Модерирует : PrincesskaMarishka, ULer

 Версия для печати • ПодписатьсяДобавить в закладки
На первую страницук этому сообщениюк последнему сообщению

Открыть новую тему     Написать ответ в эту тему

AMPIRUTYUN



Silver Member
Редактировать | Профиль | Сообщение | Цитировать | Сообщить модератору
Exact Audio Copy V0.99 prebeta 5 from 4. May 2009
 
EAC extraction logfile from 21. April 2010, 19:04
 
Lionel Richie / Can't Slow Down
 
Used drive  : ASUS    DRW-1608P   Adapter: 2  ID: 1
 
Read mode               : Secure
Utilize accurate stream : Yes
Defeat audio cache      : Yes
Make use of C2 pointers : No
 
Read offset correction                      : 48
Overread into Lead-In and Lead-Out          : No
Fill up missing offset samples with silence : Yes
Delete leading and trailing silent blocks   : No
Null samples used in CRC calculations       : Yes
Used interface                              : Installed external ASPI interface
 
Used output format              : User Defined Encoder
Selected bitrate                : 1024 kBit/s
Quality                         : High
Add ID3 tag                     : No
Command line compressor         : C:\Program Files (x86)\Exact Audio Copy\Flac\flac.exe
Additional command line options : -5 -V -T "ARTIST=%a" -T "TITLE=%t" -T "ALBUM=%g" -T "DATE=%y" -T "TRACKNUMBER=%n" -T "GENRE=%m" -T "COMMENT=EAC FLAC -5" %s
 
 
TOC of the extracted CD
 
     Track |   Start  |  Length  | Start sector | End sector  
    ---------------------------------------------------------
        1  |  0:00.33 |  4:44.22 |        33    |    21354    
        2  |  4:44.55 |  6:25.60 |     21355    |    50289    
        3  | 11:10.40 |  5:34.70 |     50290    |    75409    
        4  | 16:45.35 |  3:14.28 |     75410    |    89987    
        5  | 19:59.63 |  6:13.02 |     89988    |   117964    
        6  | 26:12.65 |  4:22.18 |    117965    |   137632    
        7  | 30:35.08 |  5:58.67 |    137633    |   164549    
        8  | 36:34.00 |  4:06.70 |    164550    |   183069    
 
 
Range status and errors
 
Selected range
 
     Filename F:\Lionel Richie - Can't Slow Down - 1983\Lionel Richie - Can't Slow Down.wav
 
     Peak level 100.0 %
     Range quality 100.0 %
     Test CRC 8E942875
     Copy CRC 8E942875
     Copy OK
 
No errors occurred
 
 
AccurateRip summary
 
Track  1  accurately ripped (confidence 4)  [36230C4D]
Track  2  accurately ripped (confidence 4)  [3F943DE4]
Track  3  accurately ripped (confidence 4)  [88363F97]
Track  4  accurately ripped (confidence 4)  [8FE5BB25]
Track  5  accurately ripped (confidence 4)  [8B4B248A]
Track  6  accurately ripped (confidence 4)  [096B7192]
Track  7  accurately ripped (confidence 4)  [A4C6FC6B]
Track  8  accurately ripped (confidence 4)  [7E217A5D]
 
All tracks accurately ripped
 
End of status report
 
//////////////////////////////////////////////////////////////////////////////////////////
 
-----------------------
 
DON'T MODIFY THIS FILE
 
-----------------------
 
PERFORMER: auCDtect Task Manager, ver. 1.6.0 RC1 build 1.6.0.1
Copyright (c) 2008-2010 y-soft. All rights reserved
http://y-soft.org
 
ANALYZER: auCDtect: CD records authenticity detector, version 0.8.2
Copyright (c) 2004 Oleg Berngardt. All rights reserved.
Copyright (c) 2004 Alexander Djourik. All rights reserved.
 
 
FILE: Lionel Richie - Can't Slow Down.flac
  Size: 255518412 Hash: D36997D4C5216678C4FA09D90E011CC8 Accuracy: -m0
  Conclusion: CDDA 100%
  Signature: 7D85B0B58FF75F5141C3DE768B74C09A24653B3D
 
////////////////////////////////////////////////////////////////////////////////////////////
 
foobar2000 1.2.5 / Dynamic Range Meter 1.1.1
log date: 2013-06-21 16:55:51
 
--------------------------------------------------------------------------------
Analyzed: Lionel Richie / Can't Slow Down
--------------------------------------------------------------------------------
 
DR         Peak         RMS     Duration Track
--------------------------------------------------------------------------------
DR14      -0.01 dB   -16.67 dB      4:44 01-Can't Slow Down
DR14      -0.20 dB   -16.48 dB      6:26 02-All Night Long (All Night)
DR14      -0.23 dB   -17.61 dB      5:35 03-Penny Lover
DR13      -0.01 dB   -18.09 dB      3:14 04-Stuck On You
DR14      -0.65 dB   -17.90 dB      6:13 05-Love Will Find A Way
DR13       0.00 dB   -16.24 dB      4:22 06-The Only One
DR14      -0.20 dB   -16.36 dB      5:59 07-Running With The Night
DR14      -0.64 dB   -18.47 dB      4:07 08-Hello
--------------------------------------------------------------------------------
 
Number of tracks:  8
Official DR value: DR14
 
Samplerate:        44100 Hz
Channels:          2
Bits per sample:   16
Bitrate:           837 kbps
Codec:             FLAC
================================================================================
 
///////////////////////////////////////////////////////////////////////////////////
 

Всего записей: 2461 | Зарегистр. 01-12-2009 | Отправлено: 11:05 27-06-2013
Открыть новую тему     Написать ответ в эту тему

На первую страницук этому сообщениюк последнему сообщению

Компьютерный форум Ru.Board » Общие » Музыка и Кино » Музыка в lossless форматах (часть 5)


Реклама на форуме Ru.Board.

Powered by Ikonboard "v2.1.7b" © 2000 Ikonboard.com
Modified by Ru.Board
© Ru.Board 2000-2020

BitCoin: 1NGG1chHtUvrtEqjeerQCKDMUi6S6CG4iC

Рейтинг.ru