Перейти из форума на сайт.

НовостиФайловые архивы
ПоискАктивные темыТоп лист
ПравилаКто в on-line?
Вход Забыли пароль? Первый раз на этом сайте? Регистрация
Компьютерный форум Ru.Board » Общие » Музыка и Кино » Музыка в lossless форматах (часть 5)

Модерирует : PrincesskaMarishka, ULer

 Версия для печати • ПодписатьсяДобавить в закладки
На первую страницук этому сообщениюк последнему сообщению

Открыть новую тему     Написать ответ в эту тему

AMPIRUTYUN



Silver Member
Редактировать | Профиль | Сообщение | Цитировать | Сообщить модератору
Exact Audio Copy V0.99 prebeta 5 from 4. May 2009
 
EAC extraction logfile from 1. November 2010, 10:30
 
Lionel Richie / Louder Than Words
 
Used drive  : PIONEER DVD-RW  DVR-216D   Adapter: 2  ID: 0
 
Read mode               : Secure
Utilize accurate stream : Yes
Defeat audio cache      : Yes
Make use of C2 pointers : No
 
Read offset correction                      : 96
Overread into Lead-In and Lead-Out          : No
Fill up missing offset samples with silence : Yes
Delete leading and trailing silent blocks   : No
Null samples used in CRC calculations       : Yes
Used interface                              : Native Win32 interface for Win NT & 2000
 
Used output format              : User Defined Encoder
Selected bitrate                : 128 kBit/s
Quality                         : High
Add ID3 tag                     : No
Command line compressor         : C:\Program Files\FLAC\flac.exe
Additional command line options : -V -8 -T "artist=%a" -T "title=%t" -T "album=%g" -T "date=%y" -T "tracknumber=%n" -T "genre=%m" %s  
 
 
TOC of the extracted CD
 
     Track |   Start  |  Length  | Start sector | End sector  
    ---------------------------------------------------------
        1  |  0:00.32 |  4:04.70 |        32    |    18401    
        2  |  4:05.27 |  4:33.33 |     18402    |    38909    
        3  |  8:38.60 |  5:01.27 |     38910    |    61511    
        4  | 13:40.12 |  4:33.58 |     61512    |    82044    
        5  | 18:13.70 |  5:01.55 |     82045    |   104674    
        6  | 23:15.50 |  4:34.45 |    104675    |   125269    
        7  | 27:50.20 |  5:01.20 |    125270    |   147864    
        8  | 32:51.40 |  5:01.35 |    147865    |   170474    
        9  | 37:53.00 |  5:02.12 |    170475    |   193136    
       10  | 42:55.12 |  5:01.28 |    193137    |   215739    
       11  | 47:56.40 |  5:43.12 |    215740    |   241476    
       12  | 53:39.52 |  6:59.23 |    241477    |   272924    
       13  | 60:39.00 |  6:26.57 |    272925    |   301931    
 
 
Range status and errors
 
Selected range
 
     Filename F:\Lionel Richie - Louder Than Words.wav
 
     Peak level 98.5 %
     Range quality 100.0 %
     Test CRC AB570162
     Copy CRC AB570162
     Copy OK
 
No errors occurred
 
 
AccurateRip summary
 
Track  1  accurately ripped (confidence 20)  [343839C7]
Track  2  accurately ripped (confidence 19)  [114FE269]
Track  3  accurately ripped (confidence 19)  [991FCB34]
Track  4  accurately ripped (confidence 19)  [7652DB4D]
Track  5  accurately ripped (confidence 19)  [0E963032]
Track  6  accurately ripped (confidence 19)  [E3C7CE27]
Track  7  accurately ripped (confidence 19)  [DFCAEBEC]
Track  8  accurately ripped (confidence 18)  [5C60CEB4]
Track  9  accurately ripped (confidence 18)  [883D0A9F]
Track 10  accurately ripped (confidence 19)  [4DB81E88]
Track 11  accurately ripped (confidence 18)  [B4B8B080]
Track 12  accurately ripped (confidence 17)  [6F57B3C5]
Track 13  accurately ripped (confidence 18)  [F89EE03A]
 
All tracks accurately ripped
 
End of status report
 
////////////////////////////////////////////////////////////////////////////////////////////////////
 
-----------------------
 
DON'T MODIFY THIS FILE
 
-----------------------
 
PERFORMER: auCDtect Task Manager, ver. 1.6.0 RC1 build 1.6.0.1
Copyright (c) 2008-2010 y-soft. All rights reserved
http://y-soft.org
 
ANALYZER: auCDtect: CD records authenticity detector, version 0.8.2
Copyright (c) 2004 Oleg Berngardt. All rights reserved.
Copyright (c) 2004 Alexander Djourik. All rights reserved.
 
 
FILE: Lionel Richie - Louder Than Words.flac
  Size: 455624638 Hash: 4CA7CCAE3348777BFE3C8ACE0D127399 Accuracy: -m0
  Conclusion: CDDA 99%
  Signature: A0A5B131BF5A8791F77E5C4CE0897A1B4D59CB2B
 
///////////////////////////////////////////////////////////////////////////////////////
 
foobar2000 1.2.5 / Dynamic Range Meter 1.1.1
log date: 2013-06-22 03:16:14
 
--------------------------------------------------------------------------------
Analyzed: Lionel Richie / Louder Than Words
--------------------------------------------------------------------------------
 
DR         Peak         RMS     Duration Track
--------------------------------------------------------------------------------
DR8       -0.50 dB    -9.84 dB      4:05 01-Piece Of Love
DR7       -1.14 dB   -10.88 dB      4:33 02-Still In Love
DR7       -1.07 dB   -10.28 dB      5:01 03-I Wanna Take You Down
DR7       -0.13 dB   -10.13 dB      4:34 04-Can't Get Over You
DR8       -0.34 dB   -10.02 dB      5:02 05-Change
DR8       -0.61 dB   -10.17 dB      4:35 06-Nothing Else Matters
DR9       -0.31 dB   -10.74 dB      5:01 07-Ordinary Girl
DR7       -0.17 dB    -9.17 dB      5:01 08-Say I Do
DR8       -0.23 dB    -9.96 dB      5:02 09-Paradise
DR6       -0.18 dB    -9.45 dB      5:01 10-Don't Wanna Lose You
DR6       -0.30 dB    -8.03 dB      5:43 11-Now You're Gone
DR7       -1.09 dB   -10.70 dB      6:59 12-Lovers At First Sight
DR8       -0.59 dB   -13.33 dB      6:27 13-Climbing
--------------------------------------------------------------------------------
 
Number of tracks:  13
Official DR value: DR7
 
Samplerate:        44100 Hz
Channels:          2
Bits per sample:   16
Bitrate:           905 kbps
Codec:             FLAC
================================================================================
 
//////////////////////////////////////////////////////////////////////////////////////////////
 

Всего записей: 2461 | Зарегистр. 01-12-2009 | Отправлено: 17:32 27-06-2013 | Исправлено: AMPIRUTYUN, 17:32 27-06-2013
Открыть новую тему     Написать ответ в эту тему

На первую страницук этому сообщениюк последнему сообщению

Компьютерный форум Ru.Board » Общие » Музыка и Кино » Музыка в lossless форматах (часть 5)


Реклама на форуме Ru.Board.

Powered by Ikonboard "v2.1.7b" © 2000 Ikonboard.com
Modified by Ru.Board
© Ru.Board 2000-2020

BitCoin: 1NGG1chHtUvrtEqjeerQCKDMUi6S6CG4iC

Рейтинг.ru