Перейти из форума на сайт.

НовостиФайловые архивы
ПоискАктивные темыТоп лист
ПравилаКто в on-line?
Вход Забыли пароль? Первый раз на этом сайте? Регистрация
Компьютерный форум Ru.Board » Общие » Музыка и Кино » Музыка в lossless форматах (часть 5)

Модерирует : PrincesskaMarishka, ULer

 Версия для печати • ПодписатьсяДобавить в закладки
На первую страницук этому сообщениюк последнему сообщению

Открыть новую тему     Написать ответ в эту тему

AMPIRUTYUN



Silver Member
Редактировать | Профиль | Сообщение | Цитировать | Сообщить модератору
Exact Audio Copy V0.99 prebeta 5 from 4. May 2009
 
EAC extraction logfile from 29. March 2010, 1:30
 
Lionel Richie / Dancing On The Ceiling  
 
Used drive  : ASUS    DRW-1608P   Adapter: 2  ID: 1
 
Read mode               : Secure
Utilize accurate stream : Yes
Defeat audio cache      : Yes
Make use of C2 pointers : No
 
Read offset correction                      : 48
Overread into Lead-In and Lead-Out          : No
Fill up missing offset samples with silence : Yes
Delete leading and trailing silent blocks   : No
Null samples used in CRC calculations       : Yes
Used interface                              : Installed external ASPI interface
 
Used output format              : User Defined Encoder
Selected bitrate                : 1024 kBit/s
Quality                         : High
Add ID3 tag                     : No
Command line compressor         : C:\Program Files (x86)\Exact Audio Copy\Flac\flac.exe
Additional command line options : -5 -V -T "ARTIST=%a" -T "TITLE=%t" -T "ALBUM=%g" -T "DATE=%y" -T "TRACKNUMBER=%n" -T "GENRE=%m" -T "COMMENT=EAC FLAC -5" %s
 
 
TOC of the extracted CD
 
     Track |   Start  |  Length  | Start sector | End sector  
    ---------------------------------------------------------
        1  |  0:00.00 |  4:32.09 |         0    |    20408    
        2  |  4:32.09 |  5:55.19 |     20409    |    47052    
        3  | 10:27.28 |  3:39.25 |     47053    |    63502    
        4  | 14:06.53 |  8:07.73 |     63503    |   100100    
        5  | 22:14.51 |  4:38.29 |    100101    |   120979    
        6  | 26:53.05 |  5:42.28 |    120980    |   146657    
        7  | 32:35.33 |  5:08.62 |    146658    |   169819    
        8  | 37:44.20 |  4:02.50 |    169820    |   188019    
        9  | 41:46.70 |  5:01.50 |    188020    |   210644    
       10  | 46:48.45 |  7:12.00 |    210645    |   243044    
       11  | 54:00.45 |  8:17.57 |    243045    |   280376    
       12  | 62:18.27 |  9:35.18 |    280377    |   323519    
       13  | 71:53.45 |  7:07.16 |    323520    |   355560    
 
 
Range status and errors
 
Selected range
 
     Filename F:\Lionel Richie - Dancing On The Ceiling - 1986\Lionel Richie - Dancing On The Ceiling.wav
 
     Peak level 100.0 %
     Range quality 100.0 %
     Test CRC BA9D69D2
     Copy CRC BA9D69D2
     Copy OK
 
No errors occurred
 
 
AccurateRip summary
 
Track  1  accurately ripped (confidence 32)  [1E940807]
Track  2  accurately ripped (confidence 32)  [F702A58B]
Track  3  accurately ripped (confidence 32)  [3F032066]
Track  4  accurately ripped (confidence 32)  [C9F6352F]
Track  5  accurately ripped (confidence 32)  [D96BB4DA]
Track  6  accurately ripped (confidence 32)  [82BDA0AD]
Track  7  accurately ripped (confidence 31)  [5513A966]
Track  8  accurately ripped (confidence 32)  [F7BE8206]
Track  9  accurately ripped (confidence 32)  [9D59B98B]
Track 10  accurately ripped (confidence 32)  [1EE22D8B]
Track 11  accurately ripped (confidence 32)  [7FDF11DB]
Track 12  accurately ripped (confidence 32)  [AB1825F1]
Track 13  accurately ripped (confidence 31)  [6FA33018]
 
All tracks accurately ripped
 
End of status report
 
//////////////////////////////////////////////////////////////////////////////////////////////////
 
-----------------------
 
DON'T MODIFY THIS FILE
 
-----------------------
 
PERFORMER: auCDtect Task Manager, ver. 1.6.0 RC1 build 1.6.0.1
Copyright (c) 2008-2010 y-soft. All rights reserved
http://y-soft.org
 
ANALYZER: auCDtect: CD records authenticity detector, version 0.8.2
Copyright (c) 2004 Oleg Berngardt. All rights reserved.
Copyright (c) 2004 Alexander Djourik. All rights reserved.
 
 
FILE: Lionel Richie - Dancing On The Ceiling.flac
  Size: 545079475 Hash: CEF673958870CA9CFACD67AC4C1D2151 Accuracy: -m0
  Conclusion: CDDA 100%
  Signature: D6ACA5F8EE80C4789E8904557385EBB5950B7D6C
 
//////////////////////////////////////////////////////////////////////////////////////////
 
foobar2000 1.2.5 / Dynamic Range Meter 1.1.1
log date: 2013-06-21 19:41:06
 
--------------------------------------------------------------------------------
Analyzed: Lionel Richie / Dancing On The Ceiling  
--------------------------------------------------------------------------------
 
DR         Peak         RMS     Duration Track
--------------------------------------------------------------------------------
DR10      -0.10 dB   -12.50 dB      4:32 01-Dancing On The Ceiling
DR12      -0.11 dB   -14.11 dB      5:55 02-Se La
DR12      -0.75 dB   -15.47 dB      3:39 03-Ballerina Girl
DR10      -1.55 dB   -13.32 dB      8:08 04-Don't Stop
DR11      -0.14 dB   -15.26 dB      4:38 05-Deep River Woman
DR10      -0.91 dB   -12.98 dB      5:42 06-Love Will Conquer All
DR11      -0.06 dB   -13.12 dB      5:09 07-Tonight Will Be Alright
DR12      -0.30 dB   -15.05 dB      4:03 08-Say You, Say Me
DR10      -0.44 dB   -11.61 dB      5:02 09-Night Train (Smooth Alligator)
DR10       0.00 dB   -11.83 dB      7:12 10-Dancing On The Ceiling (12' Version)
DR10      -0.46 dB   -12.35 dB      8:18 11-Se La (12' Version)
DR11      -0.60 dB   -13.36 dB      9:35 12-Don't Stop (12' Version)
DR11      -0.18 dB   -14.15 dB      7:07 13-Love Will Conquer All (12' Version)
--------------------------------------------------------------------------------
 
Number of tracks:  13
Official DR value: DR11
 
Samplerate:        44100 Hz
Channels:          2
Bits per sample:   16
Bitrate:           920 kbps
Codec:             FLAC
================================================================================
 
////////////////////////////////////////////////////////////////////////////////////
 

Всего записей: 2461 | Зарегистр. 01-12-2009 | Отправлено: 23:24 27-06-2013
Открыть новую тему     Написать ответ в эту тему

На первую страницук этому сообщениюк последнему сообщению

Компьютерный форум Ru.Board » Общие » Музыка и Кино » Музыка в lossless форматах (часть 5)


Реклама на форуме Ru.Board.

Powered by Ikonboard "v2.1.7b" © 2000 Ikonboard.com
Modified by Ru.Board
© Ru.Board 2000-2020

BitCoin: 1NGG1chHtUvrtEqjeerQCKDMUi6S6CG4iC

Рейтинг.ru