Перейти из форума на сайт.

НовостиФайловые архивы
ПоискАктивные темыТоп лист
ПравилаКто в on-line?
Вход Забыли пароль? Первый раз на этом сайте? Регистрация
Компьютерный форум Ru.Board » Общие » Музыка и Кино » Музыка в lossless форматах (часть 5)

Модерирует : PrincesskaMarishka, ULer

 Версия для печати • ПодписатьсяДобавить в закладки
На первую страницук этому сообщениюк последнему сообщению

Открыть новую тему     Написать ответ в эту тему

AMPIRUTYUN



Silver Member
Редактировать | Профиль | Сообщение | Цитировать | Сообщить модератору
Exact Audio Copy V1.0 beta 2 from 29. April 2011
 
Отчёт EAC об извлечении, выполненном 3. июля 2011, 18:17
 
Lionel Richie / The Definitive Collection (CD1)
 
Дисковод: TEAC    DV-W520GM   Adapter: 4  ID: 0
 
Режим чтения                 : Достоверность
Использование точного потока : Да
Отключение кэша аудио        : Да
Использование указателей C2  : Нет
 
Коррекция смещения при чтении                     : 6
Способность читать области Lead-in и Lead-out     : Нет
Заполнение пропущенных сэмплов тишиной            : Да
Удаление блоков с тишиной в начале и конце        : Нет
При вычислениях CRC использовались нулевые сэмплы : Да
Интерфейс                                         : Встроенный Win32-интерфейс для Win NT/2000
 
Выходной формат : Внутренние WAV-операции
Формат сэмплов  : 44.100 Гц; 16 бит; стерео
 
 
TOC извлечённого CD
 
     Трек |   Старт  | Длительность | Начальный сектор | Конечный сектор  
    ---------------------------------------------------------------------
       1  |  0:00.00 |    4:22.45   |           0      |      19694      
       2  |  4:22.45 |    4:03.54   |       19695      |      37973      
       3  |  8:26.24 |    4:50.47   |       37974      |      59770      
       4  | 13:16.71 |    4:10.21   |       59771      |      78541      
       5  | 17:27.17 |    4:36.17   |       78542      |      99258      
       6  | 22:03.34 |    4:15.59   |       99259      |     118442      
       7  | 26:19.18 |    5:49.35   |      118443      |     144652      
       8  | 32:08.53 |    3:39.36   |      144653      |     161113      
       9  | 35:48.14 |    5:42.48   |      161114      |     186811      
      10  | 41:30.62 |    4:31.03   |      186812      |     207139      
      11  | 46:01.65 |    3:42.72   |      207140      |     223861      
      12  | 49:44.62 |    4:30.20   |      223862      |     244131      
      13  | 54:15.07 |    4:59.10   |      244132      |     266566      
      14  | 59:14.17 |    4:01.61   |      266567      |     284702      
      15  | 63:16.03 |    4:53.65   |      284703      |     306742      
      16  | 68:09.68 |    3:43.47   |      306743      |     323514      
      17  | 71:53.40 |    3:53.56   |      323515      |     341045      
      18  | 75:47.21 |    3:37.11   |      341046      |     357331      
 
 
Характеристики диапазона извлечения и сообщения об ошибках
 
Выбранный диапазон
 
     Имя файла D:\CHANSON\Lionel Richie - 2003 - The Definitive Collection\CD1\Lionel Richie - The Definitive Collection (CD1).wav
 
     Пиковый уровень 100.0 %
     Скорость извлечения 7.0 X
     Качество диапазона 100.0 %
     CRC теста 7AE85092
     CRC копии 7AE85092
     Копирование... OK
 
Ошибок не произошло
 
 
AccurateRip: сводка
 
Трек  1  : извлечено точно (доверие 4)  [B4C461C2]  (AR v2)
Трек  2  : извлечено точно (доверие 4)  [9877F7FC]  (AR v2)
Трек  3  : извлечено точно (доверие 4)  [9F64AD49]  (AR v2)
Трек  4  : извлечено точно (доверие 4)  [DB4B808E]  (AR v2)
Трек  5  : извлечено точно (доверие 4)  [293348B6]  (AR v2)
Трек  6  : извлечено точно (доверие 4)  [7D8F64D5]  (AR v2)
Трек  7  : извлечено точно (доверие 4)  [60C652F6]  (AR v2)
Трек  8  : извлечено точно (доверие 4)  [8CA0E5F8]  (AR v2)
Трек  9  : извлечено точно (доверие 4)  [CAE58B82]  (AR v2)
Трек 10  : извлечено точно (доверие 4)  [E9987305]  (AR v2)
Трек 11  : извлечено точно (доверие 4)  [476901CD]  (AR v2)
Трек 12  : извлечено точно (доверие 4)  [2B5F846D]  (AR v2)
Трек 13  : извлечено точно (доверие 4)  [52990C33]  (AR v2)
Трек 14  : извлечено точно (доверие 4)  [A0A43A4A]  (AR v2)
Трек 15  : извлечено точно (доверие 4)  [3008661F]  (AR v2)
Трек 16  : извлечено точно (доверие 4)  [6EBCC3AE]  (AR v2)
Трек 17  : извлечено точно (доверие 4)  [59D2E32D]  (AR v2)
Трек 18  : извлечено точно (доверие 4)  [25278B5D]  (AR v2)
 
Все треки извлечены точно
 
Конец отчёта
 
==== Контрольная сумма отчёта 8B6FEC9BF446E7538CAF3EE6F13B676FB9DA3268A144E2F5F60D6CD4C2A61DC5 ====
 
////////////////////////////////////////////////////////////////////////////////////////////////
 
Exact Audio Copy V1.0 beta 2 from 29. April 2011
 
Отчёт EAC об извлечении, выполненном 3. июля 2011, 18:43
 
Lionel Richie / The Definitive Collection (CD2)
 
Дисковод: TEAC    DV-W520GM   Adapter: 4  ID: 0
 
Режим чтения                 : Достоверность
Использование точного потока : Да
Отключение кэша аудио        : Да
Использование указателей C2  : Нет
 
Коррекция смещения при чтении                     : 6
Способность читать области Lead-in и Lead-out     : Нет
Заполнение пропущенных сэмплов тишиной            : Да
Удаление блоков с тишиной в начале и конце        : Нет
При вычислениях CRC использовались нулевые сэмплы : Да
Интерфейс                                         : Встроенный Win32-интерфейс для Win NT/2000
 
Выходной формат : Внутренние WAV-операции
Формат сэмплов  : 44.100 Гц; 16 бит; стерео
 
 
TOC извлечённого CD
 
     Трек |   Старт  | Длительность | Начальный сектор | Конечный сектор  
    ---------------------------------------------------------------------
       1  |  0:00.00 |    3:41.16   |           0      |      16590      
       2  |  3:41.16 |    4:15.44   |       16591      |      35759      
       3  |  7:56.60 |    4:27.16   |       35760      |      55800      
       4  | 12:24.01 |    4:10.02   |       55801      |      74552      
       5  | 16:34.03 |    3:44.45   |       74553      |      91397      
       6  | 20:18.48 |    4:03.57   |       91398      |     109679      
       7  | 24:22.30 |    3:12.12   |      109680      |     124091      
       8  | 27:34.42 |    4:07.70   |      124092      |     142686      
       9  | 31:42.37 |    3:20.45   |      142687      |     157731      
      10  | 35:03.07 |    3:35.14   |      157732      |     173870      
      11  | 38:38.21 |    3:28.25   |      173871      |     189495      
      12  | 42:06.46 |    3:47.04   |      189496      |     206524      
      13  | 45:53.50 |    3:01.44   |      206525      |     220143      
      14  | 48:55.19 |    4:02.40   |      220144      |     238333      
      15  | 52:57.59 |    3:49.17   |      238334      |     255525      
      16  | 56:47.01 |    2:40.25   |      255526      |     267550      
      17  | 59:27.26 |    3:34.25   |      267551      |     283625      
      18  | 63:01.51 |    3:31.23   |      283626      |     299473      
      19  | 66:32.74 |    3:53.53   |      299474      |     317001      
      20  | 70:26.52 |    4:21.14   |      317002      |     336590      
 
 
Характеристики диапазона извлечения и сообщения об ошибках
 
Выбранный диапазон
 
     Имя файла D:\CHANSON\Lionel Richie - 2003 - The Definitive Collection\CD2\Lionel Richie - The Definitive Collection (CD2).wav
 
     Пиковый уровень 100.0 %
     Скорость извлечения 6.8 X
     Качество диапазона 100.0 %
     CRC теста 047F9FEC
     CRC копии 047F9FEC
     Копирование... OK
 
Ошибок не произошло
 
 
AccurateRip: сводка
 
Трек  1  : извлечено точно (доверие 3)  [AB5F7441]  (AR v2)
Трек  2  : извлечено точно (доверие 3)  [ECB67D85]  (AR v2)
Трек  3  : извлечено точно (доверие 3)  [A3C35D95]  (AR v2)
Трек  4  : извлечено точно (доверие 3)  [6F7FEE6D]  (AR v2)
Трек  5  : извлечено точно (доверие 3)  [A277F277]  (AR v2)
Трек  6  : извлечено точно (доверие 3)  [103C069F]  (AR v2)
Трек  7  : извлечено точно (доверие 3)  [311731FF]  (AR v2)
Трек  8  : извлечено точно (доверие 3)  [E8D6AF94]  (AR v2)
Трек  9  : извлечено точно (доверие 3)  [F404C6EB]  (AR v2)
Трек 10  : извлечено точно (доверие 3)  [885E57C6]  (AR v2)
Трек 11  : извлечено точно (доверие 3)  [E964F37D]  (AR v2)
Трек 12  : извлечено точно (доверие 3)  [8D914848]  (AR v2)
Трек 13  : извлечено точно (доверие 3)  [9FAF31EF]  (AR v2)
Трек 14  : извлечено точно (доверие 3)  [E203BF50]  (AR v2)
Трек 15  : извлечено точно (доверие 3)  [8D9E0CA4]  (AR v2)
Трек 16  : извлечено точно (доверие 3)  [F529504E]  (AR v2)
Трек 17  : извлечено точно (доверие 3)  [EDC56B82]  (AR v2)
Трек 18  : извлечено точно (доверие 3)  [144C5B63]  (AR v2)
Трек 19  : извлечено точно (доверие 3)  [01E2ED97]  (AR v2)
Трек 20  : извлечено точно (доверие 3)  [417D6AC5]  (AR v2)
 
Все треки извлечены точно
 
Конец отчёта
 
==== Контрольная сумма отчёта 9D6F1E3C68211AB1DB873665347B52B757B2DB67337E3DEB5792FC53DAC63FB8 ====
 
#######################################################
 
-----------------------
 
DON'T MODIFY THIS FILE
 
-----------------------
 
PERFORMER: auCDtect Task Manager, ver. 1.6.0 RC1 build 1.6.0.1
Copyright (c) 2008-2010 y-soft. All rights reserved
http://y-soft.org
 
ANALYZER: auCDtect: CD records authenticity detector, version 0.8.2
Copyright (c) 2004 Oleg Berngardt. All rights reserved.
Copyright (c) 2004 Alexander Djourik. All rights reserved.
 
 
FILE: Lionel Richie - The Definitive Collection (CD1).flac
  Size: 534135364 Hash: 56D486572D37BC288FD0B03C5584EC1A Accuracy: -m0
  Conclusion: CDDA 100%
  Signature: 00C666024A6EEC837FAD5180C1C37B2F27E34757
 
/////////////////////////////////////////////////////////////////////////
 
-----------------------
 
DON'T MODIFY THIS FILE
 
-----------------------
 
PERFORMER: auCDtect Task Manager, ver. 1.6.0 RC1 build 1.6.0.1
Copyright (c) 2008-2010 y-soft. All rights reserved
http://y-soft.org
 
ANALYZER: auCDtect: CD records authenticity detector, version 0.8.2
Copyright (c) 2004 Oleg Berngardt. All rights reserved.
Copyright (c) 2004 Alexander Djourik. All rights reserved.
 
 
FILE: Lionel Richie - The Definitive Collection (CD2).flac
  Size: 462479158 Hash: 2C70880E6EC2CD7D023AB57C008C22F1 Accuracy: -m0
  Conclusion: CDDA 100%
  Signature: F07184E189A63B5F4469F12CCC1AA2BB5A74548E
 
###################################################
 
foobar2000 1.2.5 / Dynamic Range Meter 1.1.1
log date: 2013-06-22 11:09:00
 
--------------------------------------------------------------------------------
Analyzed: Lionel Richie / The Definitive Collection (CD1)
--------------------------------------------------------------------------------
 
DR         Peak         RMS     Duration Track
--------------------------------------------------------------------------------
DR10      -1.17 dB   -13.61 dB      4:23 01-All Night Long
DR13      -0.07 dB   -15.55 dB      4:04 02-Say You, Say Me
DR10      -0.45 dB   -11.68 dB      4:51 03-My Destiny
DR11      -0.38 dB   -14.00 dB      4:10 04-Running With The Night
DR12      -0.27 dB   -14.10 dB      4:36 05-Dancing On The Ceiling
DR7       -2.23 dB   -10.83 dB      4:16 06-Don't Stop The Music
DR10       0.00 dB   -13.93 dB      5:49 07-Love Oh Love
DR12      -0.06 dB   -15.29 dB      3:39 08-Ballerina Girl
DR9       -2.00 dB   -13.39 dB      5:43 09-Love Will Conquer All
DR11      -0.53 dB   -13.04 dB      4:31 10-Do It To Me
DR7       -2.00 dB   -10.71 dB      3:43 11-Cinderella
DR7       -2.00 dB   -10.80 dB      4:30 12-Tender Heart
DR6       -2.37 dB   -12.07 dB      4:59 13-Don't Wanna Lose You
DR7        0.00 dB    -9.71 dB      4:02 14-The Closest Thing To Heaven
DR8       -1.50 dB   -11.20 dB      4:54 15-I Forgot
DR10      -1.16 dB   -13.29 dB      3:44 16-Angel
DR6       -3.21 dB   -12.07 dB      3:54 17-To Love A Woman (Feat. Enrique Iglesias)
DR8       -4.56 dB   -16.47 dB      3:37 18-Goodbye
--------------------------------------------------------------------------------
 
Number of tracks:  18
Official DR value: DR9
 
Samplerate:        44100 Hz
Channels:          2
Bits per sample:   16
Bitrate:           897 kbps
Codec:             FLAC
================================================================================
 
///////////////////////////////////////////////////////////////////////////////
 
foobar2000 1.2.5 / Dynamic Range Meter 1.1.1
log date: 2013-06-22 11:11:39
 
--------------------------------------------------------------------------------
Analyzed: Lionel Richie / The Definitive Collection (CD2)
--------------------------------------------------------------------------------
 
DR         Peak         RMS     Duration Track
--------------------------------------------------------------------------------
DR12      -0.41 dB   -16.13 dB      3:41 01-Three Times A Lady
DR10      -0.37 dB   -12.50 dB      4:16 02-Easy
DR8       -2.40 dB   -12.94 dB      4:27 03-Endless Love (Duet with Diana Ross)
DR12      -0.17 dB   -15.77 dB      4:10 04-Hello
DR10      -0.54 dB   -13.74 dB      3:45 05-Still
DR9       -0.13 dB   -12.30 dB      4:04 06-Sail On
DR13       0.00 dB   -16.82 dB      3:12 07-Stuck On You
DR11      -0.07 dB   -14.32 dB      4:08 08-You Are
DR9        0.00 dB   -12.81 dB      3:21 09-Truly
DR11      -1.04 dB   -14.09 dB      3:35 10-Just To Be Close To You
DR10      -0.76 dB   -13.62 dB      3:28 11-Sweet Love
DR11      -0.30 dB   -13.68 dB      3:47 12-Penny Lover
DR11       0.00 dB   -14.65 dB      3:02 13-Oh No
DR11      -1.04 dB   -15.11 dB      4:03 14-Lady (You Bring Me Up)
DR10      -0.85 dB   -13.83 dB      3:49 15-Wonderland
DR10      -0.21 dB   -11.25 dB      2:40 16-Machine Gun
DR11      -0.21 dB   -12.32 dB      3:34 17-Brick House
DR9       -0.23 dB   -10.92 dB      3:31 18-Too Hot Ta Trot
DR9       -1.13 dB   -12.48 dB      3:54 19-Flying High
DR9       -0.60 dB   -12.11 dB      4:21 20-Zoom
--------------------------------------------------------------------------------
 
Number of tracks:  20
Official DR value: DR10
 
Samplerate:        44100 Hz
Channels:          2
Bits per sample:   16
Bitrate:           824 kbps
Codec:             FLAC
================================================================================[
 
#####################################################
 

Всего записей: 2461 | Зарегистр. 01-12-2009 | Отправлено: 13:34 29-06-2013
Открыть новую тему     Написать ответ в эту тему

На первую страницук этому сообщениюк последнему сообщению

Компьютерный форум Ru.Board » Общие » Музыка и Кино » Музыка в lossless форматах (часть 5)


Реклама на форуме Ru.Board.

Powered by Ikonboard "v2.1.7b" © 2000 Ikonboard.com
Modified by Ru.Board
© Ru.Board 2000-2020

BitCoin: 1NGG1chHtUvrtEqjeerQCKDMUi6S6CG4iC

Рейтинг.ru