Перейти из форума на сайт.

НовостиФайловые архивы
ПоискАктивные темыТоп лист
ПравилаКто в on-line?
Вход Забыли пароль? Первый раз на этом сайте? Регистрация
Компьютерный форум Ru.Board » Общие » Музыка и Кино » Музыка в lossless форматах (часть 5)

Модерирует : PrincesskaMarishka, ULer

 Версия для печати • ПодписатьсяДобавить в закладки
На первую страницук этому сообщениюк последнему сообщению

Открыть новую тему     Написать ответ в эту тему

AMPIRUTYUN



Silver Member
Редактировать | Профиль | Сообщение | Цитировать | Сообщить модератору
Exact Audio Copy V0.99 prebeta 5 from 4. May 2009
 
EAC extraction logfile from 1. April 2013, 0:41
 
Asia / Aria
 
Used drive  : HL-DT-STDVDRAM GSA-H10N   Adapter: 1  ID: 0
 
Read mode               : Secure
Utilize accurate stream : Yes
Defeat audio cache      : Yes
Make use of C2 pointers : No
 
Read offset correction                      : 667
Overread into Lead-In and Lead-Out          : No
Fill up missing offset samples with silence : Yes
Delete leading and trailing silent blocks   : No
Null samples used in CRC calculations       : Yes
Used interface                              : Installed external ASPI interface
 
Used output format : Internal WAV Routines
Sample format      : 44.100 Hz; 16 Bit; Stereo
 
 
TOC of the extracted CD
 
     Track |   Start  |  Length  | Start sector | End sector  
    ---------------------------------------------------------
        1  |  0:00.00 |  4:56.20 |         0    |    22219    
        2  |  4:56.20 |  4:06.62 |     22220    |    40731    
        3  |  9:03.07 |  5:19.50 |     40732    |    64706    
        4  | 14:22.57 |  4:06.48 |     64707    |    83204    
        5  | 18:29.30 |  3:59.20 |     83205    |   101149    
        6  | 22:28.50 |  5:19.10 |    101150    |   125084    
        7  | 27:47.60 |  4:49.62 |    125085    |   146821    
        8  | 32:37.47 |  4:19.15 |    146822    |   166261    
        9  | 36:56.62 |  4:37.15 |    166262    |   187051    
       10  | 41:34.02 |  4:10.33 |    187052    |   205834    
       11  | 45:44.35 |  2:27.17 |    205835    |   216876    
       12  | 48:11.52 |  4:26.50 |    216877    |   236876    
       13  | 52:38.27 |  4:23.55 |    236877    |   256656    
 
 
Range status and errors
 
Selected range
 
     Filename C:\Asia - Aria (1994, 2012 Japan Rem.)\Asia - Aria.wav
 
     Peak level 98.8 %
     Range quality 99.9 %
     Test CRC 4E19BDA2
     Copy CRC 4E19BDA2
     Copy OK
 
No errors occurred
 
 
AccurateRip summary
 
Track  1  not present in database
Track  2  not present in database
Track  3  not present in database
Track  4  not present in database
Track  5  not present in database
Track  6  not present in database
Track  7  not present in database
Track  8  not present in database
Track  9  not present in database
Track 10  not present in database
Track 11  not present in database
Track 12  not present in database
Track 13  not present in database
 
None of the tracks are present in the AccurateRip database
 
End of status report
 
///////////////////////////////////////////////////////////////////////////
 
-----------------------
 
DON'T MODIFY THIS FILE
 
-----------------------
 
PERFORMER: auCDtect Task Manager, ver. 1.6.0 RC1 build 1.6.0.1
Copyright (c) 2008-2010 y-soft. All rights reserved
http://y-soft.org
 
ANALYZER: auCDtect: CD records authenticity detector, version 0.8.2
Copyright (c) 2004 Oleg Berngardt. All rights reserved.
Copyright (c) 2004 Alexander Djourik. All rights reserved.
 
 
FILE: Asia - Aria.flac
  Size: 407338322 Hash: 17B4624201F35055C466DA9862DB896D Accuracy: -m0
  Conclusion: CDDA 99%
  Signature: 8C55F109747AA3F610B767C7F469DF4DD0A23F79
 
/////////////////////////////////////////////////////////////////////////////////
 
foobar2000 1.2.5 / Dynamic Range Meter 1.1.1
log date: 2013-07-02 14:16:23
 
--------------------------------------------------------------------------------
Analyzed: Asia / Aria
--------------------------------------------------------------------------------
 
DR         Peak         RMS     Duration Track
--------------------------------------------------------------------------------
DR9       -0.43 dB   -11.52 dB      4:56 01-Anytime
DR9       -0.81 dB   -11.29 dB      4:07 02-Are You Big Enough
DR9       -0.31 dB   -11.27 dB      5:20 03-Desire
DR8       -0.74 dB   -11.07 dB      4:07 04-Summer
DR9       -0.10 dB   -12.25 dB      3:59 05-Sad Situation
DR8       -0.10 dB   -10.79 dB      5:19 06-Don't Cut The Wire
DR10      -0.14 dB   -15.11 dB      4:50 07-Feels Like Love
DR8       -1.03 dB   -11.44 dB      4:19 08-Rememberance day
DR8       -0.98 dB   -10.54 dB      4:37 09-Enough's Enough
DR7       -0.10 dB   -10.05 dB      4:10 10-Military Man
DR11      -0.26 dB   -16.99 dB      2:27 11-Aria
DR8       -0.58 dB   -10.76 dB      4:27 12-Reality
DR11      -3.32 dB   -17.24 dB      4:24 13-Military Man (Acoustic)
--------------------------------------------------------------------------------
 
Number of tracks:  13
Official DR value: DR9
 
Samplerate:        44100 Hz
Channels:          2
Bits per sample:   16
Bitrate:           952 kbps
Codec:             FLAC
================================================================================
 
////////////////////////////////////////////////////////////////////////////////////////
 

Всего записей: 2461 | Зарегистр. 01-12-2009 | Отправлено: 13:27 06-07-2013 | Исправлено: AMPIRUTYUN, 13:40 06-07-2013
Открыть новую тему     Написать ответ в эту тему

На первую страницук этому сообщениюк последнему сообщению

Компьютерный форум Ru.Board » Общие » Музыка и Кино » Музыка в lossless форматах (часть 5)


Реклама на форуме Ru.Board.

Powered by Ikonboard "v2.1.7b" © 2000 Ikonboard.com
Modified by Ru.Board
© Ru.Board 2000-2020

BitCoin: 1NGG1chHtUvrtEqjeerQCKDMUi6S6CG4iC

Рейтинг.ru