Перейти из форума на сайт.

НовостиФайловые архивы
ПоискАктивные темыТоп лист
ПравилаКто в on-line?
Вход Забыли пароль? Первый раз на этом сайте? Регистрация
Компьютерный форум Ru.Board » Общие » Музыка и Кино » Музыка в lossless форматах (часть 5)

Модерирует : PrincesskaMarishka, ULer

 Версия для печати • ПодписатьсяДобавить в закладки
На первую страницук этому сообщениюк последнему сообщению

Открыть новую тему     Написать ответ в эту тему

AMPIRUTYUN



Silver Member
Редактировать | Профиль | Сообщение | Цитировать | Сообщить модератору
Exact Audio Copy V0.99 prebeta 5 from 4. May 2009
 
EAC extraction logfile from 4. April 2013, 11:09
 
Asia / Arena
 
Used drive  : HL-DT-STDVDRAM GSA-H10N   Adapter: 1  ID: 0
 
Read mode               : Secure
Utilize accurate stream : Yes
Defeat audio cache      : Yes
Make use of C2 pointers : No
 
Read offset correction                      : 667
Overread into Lead-In and Lead-Out          : No
Fill up missing offset samples with silence : Yes
Delete leading and trailing silent blocks   : No
Null samples used in CRC calculations       : Yes
Used interface                              : Installed external ASPI interface
 
Used output format : Internal WAV Routines
Sample format      : 44.100 Hz; 16 Bit; Stereo
 
 
TOC of the extracted CD
 
     Track |   Start  |  Length  | Start sector | End sector  
    ---------------------------------------------------------
        1  |  0:00.00 |  2:58.61 |         0    |    13410    
        2  |  2:58.61 |  5:16.11 |     13411    |    37121    
        3  |  8:14.72 |  5:17.30 |     37122    |    60926    
        4  | 13:32.27 |  5:22.28 |     60927    |    85104    
        5  | 18:54.55 |  9:08.65 |     85105    |   126269    
        6  | 28:03.45 |  5:31.62 |    126270    |   151156    
        7  | 33:35.32 |  4:57.55 |    151157    |   173486    
        8  | 38:33.12 |  5:18.58 |    173487    |   197394    
        9  | 43:51.70 |  7:07.32 |    197395    |   229451    
       10  | 50:59.27 |  5:14.30 |    229452    |   253031    
       11  | 56:13.57 |  4:28.53 |    253032    |   273184    
       12  | 60:42.35 |  3:12.32 |    273185    |   287616    
       13  | 63:54.67 |  4:50.70 |    287617    |   309436    
       14  | 68:45.62 |  4:48.18 |    309437    |   331054    
 
 
Range status and errors
 
Selected range
 
     Filename C:\Asia - Arena (1996, 2012 Japan Rem.)\Asia - Arena.wav
 
     Peak level 95.1 %
     Range quality 100.0 %
     Test CRC 0EAB48B6
     Copy CRC 0EAB48B6
     Copy OK
 
No errors occurred
 
 
AccurateRip summary
 
Track  1  not present in database
Track  2  not present in database
Track  3  not present in database
Track  4  not present in database
Track  5  not present in database
Track  6  not present in database
Track  7  not present in database
Track  8  not present in database
Track  9  not present in database
Track 10  not present in database
Track 11  not present in database
Track 12  not present in database
Track 13  not present in database
Track 14  not present in database
 
None of the tracks are present in the AccurateRip database
 
End of status report
 
////////////////////////////////////////////////////////////////////////////////////////
 
-----------------------
 
DON'T MODIFY THIS FILE
 
-----------------------
 
PERFORMER: auCDtect Task Manager, ver. 1.6.0 RC1 build 1.6.0.1
Copyright (c) 2008-2010 y-soft. All rights reserved
http://y-soft.org
 
ANALYZER: auCDtect: CD records authenticity detector, version 0.8.2
Copyright (c) 2004 Oleg Berngardt. All rights reserved.
Copyright (c) 2004 Alexander Djourik. All rights reserved.
 
 
FILE: Asia - Arena.flac
  Size: 513354642 Hash: 16D420EA030AC44FD818C9CA7F120FA7 Accuracy: -m0
  Conclusion: CDDA 100%
  Signature: D6B8FC756B74DCB24B9CEB2205DF9392F3F746C8
 
//////////////////////////////////////////////////////////////////////////////////
 
foobar2000 1.2.5 / Dynamic Range Meter 1.1.1
log date: 2013-07-02 13:32:04
 
--------------------------------------------------------------------------------
Analyzed: Asia / Arena
--------------------------------------------------------------------------------
 
DR         Peak         RMS     Duration Track
--------------------------------------------------------------------------------
DR9       -1.50 dB   -13.24 dB      2:59 01-Into The Arena
DR8       -1.57 dB   -13.03 dB      5:16 02-Arena
DR8       -0.98 dB   -11.92 dB      5:17 03-Heaven
DR9       -1.35 dB   -12.36 dB      5:22 04-Two Sides Of The Moon
DR8       -1.53 dB   -13.30 dB      9:09 05-The Day Before The War
DR9       -0.97 dB   -12.47 dB      5:32 06-Never
DR10      -0.93 dB   -13.30 dB      4:58 07-Falling
DR11      -0.49 dB   -13.61 dB      5:19 08-Words
DR8       -0.81 dB   -11.34 dB      7:07 09-U Bring Me Down
DR10      -0.43 dB   -13.73 dB      5:14 10-Tell Me Why
DR9       -1.42 dB   -12.17 dB      4:29 11-Turn It Around
DR11      -0.44 dB   -13.39 dB      3:12 12-Bella Nova
DR11      -0.51 dB   -14.96 dB      4:51 13-That Season
DR10      -2.05 dB   -15.29 dB      4:48 14-Two Sides Of The Moon (Acoustic)
--------------------------------------------------------------------------------
 
Number of tracks:  14
Official DR value: DR9
 
Samplerate:        44100 Hz
Channels:          2
Bits per sample:   16
Bitrate:           930 kbps
Codec:             FLAC
================================================================================
 
////////////////////////////////////////////////////////////////////////////////////////
 

Всего записей: 2461 | Зарегистр. 01-12-2009 | Отправлено: 16:05 06-07-2013 | Исправлено: AMPIRUTYUN, 20:45 06-07-2013
Открыть новую тему     Написать ответ в эту тему

На первую страницук этому сообщениюк последнему сообщению

Компьютерный форум Ru.Board » Общие » Музыка и Кино » Музыка в lossless форматах (часть 5)


Реклама на форуме Ru.Board.

Powered by Ikonboard "v2.1.7b" © 2000 Ikonboard.com
Modified by Ru.Board
© Ru.Board 2000-2020

BitCoin: 1NGG1chHtUvrtEqjeerQCKDMUi6S6CG4iC

Рейтинг.ru