Перейти из форума на сайт.

НовостиФайловые архивы
ПоискАктивные темыТоп лист
ПравилаКто в on-line?
Вход Забыли пароль? Первый раз на этом сайте? Регистрация
Компьютерный форум Ru.Board » Общие » Музыка и Кино » Музыка в lossless форматах (часть 5)

Модерирует : PrincesskaMarishka, ULer

 Версия для печати • ПодписатьсяДобавить в закладки
На первую страницук этому сообщениюк последнему сообщению

Открыть новую тему     Написать ответ в эту тему

AMPIRUTYUN



Silver Member
Редактировать | Профиль | Сообщение | Цитировать | Сообщить модератору
Exact Audio Copy V0.99 prebeta 5 from 4. May 2009
 
EAC extraction logfile from 4. April 2013, 12:32
 
Asia / Anthology
 
Used drive  : HL-DT-STDVDRAM GSA-H10N   Adapter: 1  ID: 0
 
Read mode               : Secure
Utilize accurate stream : Yes
Defeat audio cache      : Yes
Make use of C2 pointers : No
 
Read offset correction                      : 667
Overread into Lead-In and Lead-Out          : No
Fill up missing offset samples with silence : Yes
Delete leading and trailing silent blocks   : No
Null samples used in CRC calculations       : Yes
Used interface                              : Installed external ASPI interface
 
Used output format : Internal WAV Routines
Sample format      : 44.100 Hz; 16 Bit; Stereo
 
 
TOC of the extracted CD
 
     Track |   Start  |  Length  | Start sector | End sector  
    ---------------------------------------------------------
        1  |  0:00.00 |  5:20.37 |         0    |    24036    
        2  |  5:20.37 |  4:42.32 |     24037    |    45218    
        3  | 10:02.69 |  5:14.19 |     45219    |    68787    
        4  | 15:17.13 |  4:54.44 |     68788    |    90881    
        5  | 20:11.57 |  3:20.55 |     90882    |   105936    
        6  | 23:32.37 |  2:08.53 |    105937    |   115589    
        7  | 25:41.15 |  4:37.25 |    115590    |   136389    
        8  | 30:18.40 |  5:04.45 |    136390    |   159234    
        9  | 35:23.10 |  5:21.65 |    159235    |   183374    
       10  | 40:45.00 |  4:25.20 |    183375    |   203269    
       11  | 45:10.20 |  4:33.45 |    203270    |   223789    
       12  | 49:43.65 |  4:49.25 |    223790    |   245489    
       13  | 54:33.15 |  5:49.30 |    245490    |   271694    
       14  | 60:22.45 |  3:51.42 |    271695    |   289061    
       15  | 64:14.12 |  4:12.38 |    289062    |   307999    
       16  | 68:26.50 |  5:52.42 |    308000    |   334441    
       17  | 74:19.17 |  5:09.23 |    334442    |   357639    
 
 
Range status and errors
 
Selected range
 
     Filename C:\Asia - Anthology (1997, 2012 Japan Rem.)\Asia - Anthology.wav
 
     Peak level 98.8 %
     Range quality 100.0 %
     Test CRC 169A94FB
     Copy CRC 169A94FB
     Copy OK
 
No errors occurred
 
 
AccurateRip summary
 
Track  1  not present in database
Track  2  not present in database
Track  3  not present in database
Track  4  not present in database
Track  5  not present in database
Track  6  not present in database
Track  7  not present in database
Track  8  not present in database
Track  9  not present in database
Track 10  not present in database
Track 11  not present in database
Track 12  not present in database
Track 13  not present in database
Track 14  not present in database
Track 15  not present in database
Track 16  not present in database
Track 17  not present in database
 
None of the tracks are present in the AccurateRip database
 
End of status report
 
///////////////////////////////////////////////////////////////////////////////////////
 
-----------------------
 
DON'T MODIFY THIS FILE
 
-----------------------
 
PERFORMER: auCDtect Task Manager, ver. 1.6.0 RC1 build 1.6.0.1
Copyright (c) 2008-2010 y-soft. All rights reserved
http://y-soft.org
 
ANALYZER: auCDtect: CD records authenticity detector, version 0.8.2
Copyright (c) 2004 Oleg Berngardt. All rights reserved.
Copyright (c) 2004 Alexander Djourik. All rights reserved.
 
 
FILE: Asia - Anthology.flac
  Size: 571657645 Hash: 896F583B6BABBB8FA0413704021243FF Accuracy: -m0
  Conclusion: CDDA 100%
  Signature: 4C08C39FE61328198E43404954DA290A9BB720C3
 
/////////////////////////////////////////////////////////////////////////////////////
 
foobar2000 1.2.5 / Dynamic Range Meter 1.1.1
log date: 2013-07-02 12:04:10
 
--------------------------------------------------------------------------------
Analyzed: Asia / Anthology
--------------------------------------------------------------------------------
 
DR         Peak         RMS     Duration Track
--------------------------------------------------------------------------------
DR10      -0.27 dB   -12.63 dB      5:20 01-The Hunter
DR7       -0.61 dB    -9.87 dB      4:42 02-Only Time Will Tell
DR8       -1.03 dB   -11.60 dB      5:14 03-Arena
DR8       -0.72 dB   -11.20 dB      4:55 04-Anytime
DR8       -0.10 dB   -10.47 dB      3:21 05-Don't Cry
DR11      -1.17 dB   -15.68 dB      2:09 06-Aqua Part One
DR9       -0.10 dB   -10.82 dB      4:37 07-Who Will Stop The Rain?
DR9       -0.13 dB   -11.65 dB      5:05 08-The Heat Goes On
DR9       -0.10 dB   -11.86 dB      5:22 09-Two Sides Of The Moon
DR10      -0.13 dB   -11.67 dB      4:25 10-Reality
DR8       -0.13 dB   -11.16 dB      4:34 11-Go
DR9       -0.10 dB   -14.21 dB      4:49 12-Feels Like Love
DR8       -0.10 dB   -10.88 dB      5:49 13-Someday
DR6       -1.49 dB    -9.75 dB      3:52 14-Heat Of The Moment
DR7       -0.30 dB    -9.21 dB      4:13 15-Military Man
DR8       -0.11 dB   -10.17 dB      5:53 16-Different Worlds
DR7       -5.73 dB   -15.47 dB      5:09 17-Time Again (Acoustic)
--------------------------------------------------------------------------------
 
Number of tracks:  17
Official DR value: DR8
 
Samplerate:        44100 Hz
Channels:          2
Bits per sample:   16
Bitrate:           959 kbps
Codec:             FLAC
================================================================================
 
///////////////////////////////////////////////////////////////////////////////
 

Всего записей: 2461 | Зарегистр. 01-12-2009 | Отправлено: 20:28 06-07-2013
Открыть новую тему     Написать ответ в эту тему

На первую страницук этому сообщениюк последнему сообщению

Компьютерный форум Ru.Board » Общие » Музыка и Кино » Музыка в lossless форматах (часть 5)


Реклама на форуме Ru.Board.

Powered by Ikonboard "v2.1.7b" © 2000 Ikonboard.com
Modified by Ru.Board
© Ru.Board 2000-2020

BitCoin: 1NGG1chHtUvrtEqjeerQCKDMUi6S6CG4iC

Рейтинг.ru