Перейти из форума на сайт.

НовостиФайловые архивы
ПоискАктивные темыТоп лист
ПравилаКто в on-line?
Вход Забыли пароль? Первый раз на этом сайте? Регистрация
Компьютерный форум Ru.Board » Общие » Музыка и Кино » Музыка в lossless форматах (часть 5)

Модерирует : PrincesskaMarishka, ULer

 Версия для печати • ПодписатьсяДобавить в закладки
На первую страницук этому сообщениюк последнему сообщению

Открыть новую тему     Написать ответ в эту тему

AMPIRUTYUN



Silver Member
Редактировать | Профиль | Сообщение | Цитировать | Сообщить модератору
Exact Audio Copy V0.99 prebeta 4 from 23. January 2008
 
EAC extraction logfile from 13. May 2010, 13:02
 
Supermax / World Of Today (250 423)
 
Used drive  : PIONEER DVD-RW  DVR-105   Adapter: 0  ID: 1
 
Read mode               : Secure
Utilize accurate stream : Yes
Defeat audio cache      : Yes
Make use of C2 pointers : No
 
Read offset correction                      : 48
Overread into Lead-In and Lead-Out          : No
Fill up missing offset samples with silence : Yes
Delete leading and trailing silent blocks   : No
Null samples used in CRC calculations       : Yes
Used interface                              : Installed external ASPI interface
 
Used output format              : User Defined Encoder
Selected bitrate                : 768 kBit/s
Quality                         : High
Add ID3 tag                     : No
Command line compressor         : C:\Program Files\Exact Audio Copy\Flac\flac.exe
Additional command line options : -8 -V -T "ARTIST=%a" -T "TITLE=%t" -T "ALBUM=%g" -T "DATE=%y" -T "TRACKNUMBER=%n" -T "GENRE=%m" -T "COMMENT=%e" %s -o %d
 
 
TOC of the extracted CD
 
     Track |   Start  |  Length  | Start sector | End sector  
    ---------------------------------------------------------
        1  |  0:00.00 |  4:27.00 |         0    |    20024    
        2  |  4:27.00 |  8:38.30 |     20025    |    58904    
        3  | 13:05.30 |  5:14.00 |     58905    |    82454    
        4  | 18:19.30 |  3:43.35 |     82455    |    99214    
        5  | 22:02.65 |  3:19.07 |     99215    |   114146    
        6  | 25:21.72 |  2:57.00 |    114147    |   127421    
        7  | 28:18.72 |  7:15.73 |    127422    |   160119    
 
 
Range status and errors
 
Selected range
 
     Filename C:\Supermax . 1977 . World Of Today (250 423)\Supermax . 1977 . World Of Today (250 423).wav
 
     Peak level 88.1 %
     Range quality 100.0 %
     Test CRC 8EE646F6
     Copy CRC 8EE646F6
     Copy OK
 
No errors occurred
 
 
AccurateRip summary
 
Track  1  accurately ripped (confidence 30)  [ED8E42BF]
Track  2  accurately ripped (confidence 29)  [7D6B31F2]
Track  3  accurately ripped (confidence 28)  [C2AEE259]
Track  4  accurately ripped (confidence 29)  [3F7C95BA]
Track  5  accurately ripped (confidence 29)  [1020F037]
Track  6  accurately ripped (confidence 28)  [CAEA5A89]
Track  7  accurately ripped (confidence 28)  [15CEC438]
 
All tracks accurately ripped
 
End of status report
 
////////////////////////////////////////////////////////////////////////////////////////////////
 
-----------------------
 
DON'T MODIFY THIS FILE
 
-----------------------
 
PERFORMER: auCDtect Task Manager, ver. 1.6.0 RC1 build 1.6.0.1
Copyright (c) 2008-2010 y-soft. All rights reserved
http://y-soft.org
 
ANALYZER: auCDtect: CD records authenticity detector, version 0.8.2
Copyright (c) 2004 Oleg Berngardt. All rights reserved.
Copyright (c) 2004 Alexander Djourik. All rights reserved.
 
 
FILE: Supermax . 1977 . World Of Today (250 423).flac
  Size: 221213918 Hash: 88089FA94B8D3B278E240456E7351A9A Accuracy: -m0
  Conclusion: MPEG 95%
  Signature: A93242E2A01DC643040C12188DBF40AE7AE40F1D
 
///////////////////////////////////////////////////////////////////////////////////////////
 
foobar2000 1.2.5 / Dynamic Range Meter 1.1.1
log date: 2013-07-04 16:53:47
 
--------------------------------------------------------------------------------
Analyzed: Supermax / World Of Today (250 423)
--------------------------------------------------------------------------------
 
DR         Peak         RMS     Duration Track
--------------------------------------------------------------------------------
DR10      -3.46 dB   -15.11 dB      4:27 01-World Of Today
DR8       -1.09 dB   -10.46 dB      8:38 02-Lovemachine
DR9       -2.76 dB   -13.84 dB      5:14 03-Reality
DR8       -1.79 dB   -11.14 dB      3:43 04-Musicexpress
DR8       -1.70 dB   -11.53 dB      3:19 05-Camillo
DR9       -2.47 dB   -13.06 dB      2:57 06-Be What You Are
DR8       -1.97 dB   -11.41 dB      7:16 07-I Wanna Be Free
--------------------------------------------------------------------------------
 
Number of tracks:  7
Official DR value: DR9
 
Samplerate:        44100 Hz
Channels:          2
Bits per sample:   16
Bitrate:           829 kbps
Codec:             FLAC
================================================================================
 
/////////////////////////////////////////////////////////////////////////////////////
 

Всего записей: 2461 | Зарегистр. 01-12-2009 | Отправлено: 23:53 06-07-2013
Открыть новую тему     Написать ответ в эту тему

На первую страницук этому сообщениюк последнему сообщению

Компьютерный форум Ru.Board » Общие » Музыка и Кино » Музыка в lossless форматах (часть 5)


Реклама на форуме Ru.Board.

Powered by Ikonboard "v2.1.7b" © 2000 Ikonboard.com
Modified by Ru.Board
© Ru.Board 2000-2020

BitCoin: 1NGG1chHtUvrtEqjeerQCKDMUi6S6CG4iC

Рейтинг.ru