Перейти из форума на сайт.

НовостиФайловые архивы
ПоискАктивные темыТоп лист
ПравилаКто в on-line?
Вход Забыли пароль? Первый раз на этом сайте? Регистрация
Компьютерный форум Ru.Board » Общие » Музыка и Кино » Музыка в lossless форматах (часть 5)

Модерирует : PrincesskaMarishka, ULer

 Версия для печати • ПодписатьсяДобавить в закладки
На первую страницук этому сообщениюк последнему сообщению

Открыть новую тему     Написать ответ в эту тему

AMPIRUTYUN



Silver Member
Редактировать | Профиль | Сообщение | Цитировать | Сообщить модератору
Exact Audio Copy V0.99 prebeta 5 from 4. May 2009
 
Отчёт EAC об извлечении, выполненном 10. марта 2011, 20:52
 
SuperMax / Electricity
 
Дисковод: ASUS    DRW-1814BL   Adapter: 2  ID: 0
 
Режим чтения                 : Достоверность
Использование точного потока : Да
Отключение кэша аудио        : Да
Использование указателей C2  : Нет
 
Коррекция смещения при чтении                     : 6
Способность читать области Lead-in и Lead-out     : Нет
Заполнение пропущенных сэмплов тишиной            : Да
Удаление блоков с тишиной в начале и конце        : Нет
При вычислениях CRC использовались нулевые сэмплы : Да
Интерфейс                                         : Встроенный Win32-интерфейс для Win NT/2000
 
Выходной формат          : Пользовательский кодировщик
Выбранный битрейт        : 1024 kBit/s
Качество                 : Высокий
Добавление ID3-тэга      : Нет
Утилита сжатия           : C:\Program Files\Exact Audio Copy\FLAC\FLAC.EXE
Дополнительные параметры : -6 -V -T "ARTIST=%a" -T "TITLE=%t" -T "ALBUM=%g" -T "DATE=%y" -T "TRACKNUMBER=%n" -T "GENRE=%m" -T "COMMENT=%e" %s -o %d
 
 
TOC извлечённого CD
 
     Трек |   Старт  | Длительность | Начальный сектор | Конечный сектор  
    ---------------------------------------------------------------------
       1  |  0:00.25 |    5:47.25   |          25      |      26074      
       2  |  5:47.50 |    6:22.00   |       26075      |      54724      
       3  | 12:09.50 |    3:53.25   |       54725      |      72224      
       4  | 16:03.00 |    5:06.00   |       72225      |      95174      
       5  | 21:09.00 |    4:00.00   |       95175      |     113174      
       6  | 25:09.00 |    8:14.00   |      113175      |     150224      
       7  | 33:23.00 |    3:48.00   |      150225      |     167324      
       8  | 37:11.00 |    4:18.25   |      167325      |     186699      
 
 
Характеристики диапазона извлечения и сообщения об ошибках
 
Выбранный диапазон
 
     Имя файла C:\Users\Олег\Music\EAC\SuperMax - Electricity.wav
 
     Пиковый уровень 95.3 %
     Качество диапазона 100.0 %
     CRC теста ACBF959F
     CRC копии ACBF959F
     Копирование... OK
 
Ошибок не произошло
 
 
AccurateRip: сводка
 
Трек  1  точное извлечение (доверие 3)  [4B18B741]
Трек  2  точное извлечение (доверие 3)  [E8D8C41B]
Трек  3  точное извлечение (доверие 2)  [EA7BB5DD]
Трек  4  точное извлечение (доверие 2)  [1AA13487]
Трек  5  точное извлечение (доверие 2)  [66546F4D]
Трек  6  точное извлечение (доверие 2)  [7846762A]
Трек  7  точное извлечение (доверие 2)  [C402E9F3]
Трек  8  точное извлечение (доверие 2)  [EC1A6701]
 
Все треки извлечены точно
 
Конец отчёта
 
/////////////////////////////////////////////////////////////////////////////////////
 
-----------------------
 
DON'T MODIFY THIS FILE
 
-----------------------
 
PERFORMER: auCDtect Task Manager, ver. 1.6.0 RC1 build 1.6.0.1
Copyright (c) 2008-2010 y-soft. All rights reserved
http://y-soft.org
 
ANALYZER: auCDtect: CD records authenticity detector, version 0.8.2
Copyright (c) 2004 Oleg Berngardt. All rights reserved.
Copyright (c) 2004 Alexander Djourik. All rights reserved.
 
 
FILE: SuperMax - Electricity.flac
  Size: 261806933 Hash: 278025B321187D9589C7712192BE3A2B Accuracy: -m0
  Conclusion: MPEG 95%
  Signature: 84DE3F027BD28B952B981E9D26D8F7CA8DF2379A
 
////////////////////////////////////////////////////////////////////////////////////////////
 
foobar2000 1.2.5 / Dynamic Range Meter 1.1.1
log date: 2013-07-04 18:16:56
 
--------------------------------------------------------------------------------
Analyzed: SuperMax / Electricity
--------------------------------------------------------------------------------
 
DR         Peak         RMS     Duration Track
--------------------------------------------------------------------------------
DR14      -0.41 dB   -16.81 dB      5:47 01-LoversNight
DR15      -0.71 dB   -17.81 dB      6:22 02-Future time
DR13      -1.77 dB   -19.65 dB      3:53 03-Love is deeper
DR13      -0.74 dB   -16.61 dB      5:06 04-Funk it up
DR12      -1.80 dB   -16.16 dB      4:00 05-Show me your love
DR15      -0.90 dB   -19.19 dB      8:14 06-Body Heat
DR14      -1.79 dB   -17.96 dB      3:48 07-Coconut reggae
DR13      -2.32 dB   -17.28 dB      4:18 08-ElectriCity
--------------------------------------------------------------------------------
 
Number of tracks:  8
Official DR value: DR14
 
Samplerate:        44100 Hz
Channels:          2
Bits per sample:   16
Bitrate:           841 kbps
Codec:             FLAC
================================================================================
 
////////////////////////////////////////////////////////////////////////////////////
 

Всего записей: 2461 | Зарегистр. 01-12-2009 | Отправлено: 03:28 07-07-2013 | Исправлено: AMPIRUTYUN, 03:29 07-07-2013
Открыть новую тему     Написать ответ в эту тему

На первую страницук этому сообщениюк последнему сообщению

Компьютерный форум Ru.Board » Общие » Музыка и Кино » Музыка в lossless форматах (часть 5)


Реклама на форуме Ru.Board.

Powered by Ikonboard "v2.1.7b" © 2000 Ikonboard.com
Modified by Ru.Board
© Ru.Board 2000-2020

BitCoin: 1NGG1chHtUvrtEqjeerQCKDMUi6S6CG4iC

Рейтинг.ru