Перейти из форума на сайт.

НовостиФайловые архивы
ПоискАктивные темыТоп лист
ПравилаКто в on-line?
Вход Забыли пароль? Первый раз на этом сайте? Регистрация
Компьютерный форум Ru.Board » Общие » Музыка и Кино » Музыка в lossless форматах (часть 5)

Модерирует : PrincesskaMarishka, ULer

 Версия для печати • ПодписатьсяДобавить в закладки
На первую страницук этому сообщениюк последнему сообщению

Открыть новую тему     Написать ответ в эту тему

AMPIRUTYUN



Silver Member
Редактировать | Профиль | Сообщение | Цитировать | Сообщить модератору
Exact Audio Copy V0.99 prebeta 5 from 4. May 2009
 
Отчёт EAC об извлечении, выполненном 27. июля 2011, 19:47
 
Supermax / Just before the nightmare
 
Дисковод: PLEXTOR CD-R   PREMIUM2   Adapter: 0  ID: 0
 
Режим чтения                 : Достоверность
Использование точного потока : Да
Отключение кэша аудио        : Да
Использование указателей C2  : Нет
 
Коррекция смещения при чтении                     : 30
Способность читать области Lead-in и Lead-out     : Нет
Заполнение пропущенных сэмплов тишиной            : Да
Удаление блоков с тишиной в начале и конце        : Нет
При вычислениях CRC использовались нулевые сэмплы : Да
Интерфейс                                         : Встроенный Win32-интерфейс для Win NT/2000
 
Выходной формат : Внутренние WAV-операции
Формат сэмплов  : 44.100 Гц; 16 бит; стерео
 
 
TOC извлечённого CD
 
     Трек |   Старт  | Длительность | Начальный сектор | Конечный сектор  
    ---------------------------------------------------------------------
       1  |  0:00.00 |    4:43.50   |           0      |      21274      
       2  |  4:43.50 |    5:07.37   |       21275      |      44336      
       3  |  9:51.12 |    4:45.00   |       44337      |      65711      
       4  | 14:36.12 |    5:11.00   |       65712      |      89036      
       5  | 19:47.12 |    4:45.00   |       89037      |     110411      
       6  | 24:32.12 |    4:11.70   |      110412      |     129306      
       7  | 28:44.07 |    6:57.05   |      129307      |     160586      
       8  | 35:41.12 |    3:51.40   |      160587      |     177951      
 
 
Характеристики диапазона извлечения и сообщения об ошибках
 
Выбранный диапазон
 
     Имя файла C:\Supermax - Just Before The Nightmare (HAGA 150 058-2)\Supermax - Just before the nightmare.wav
 
     Пиковый уровень 100.0 %
     Качество диапазона 100.0 %
     CRC теста 3CF11DCC
     CRC копии 3CF11DCC
     Копирование... OK
 
Ошибок не произошло
 
 
AccurateRip: сводка
 
Трек  1  точность не определена (достоверность 1)  [AB951AE8], AccurateRip вернул [8DE628DC]
Трек  2  точность не определена (достоверность 1)  [4842EAAF], AccurateRip вернул [CBA7A3DF]
Трек  3  точность не определена (достоверность 1)  [4A7D17DF], AccurateRip вернул [850F25FB]
Трек  4  точность не определена (достоверность 1)  [9391C239], AccurateRip вернул [C2D44009]
Трек  5  точность не определена (достоверность 1)  [5187F9BA], AccurateRip вернул [18368C9E]
Трек  6  точность не определена (достоверность 1)  [F54AC629], AccurateRip вернул [D07A4A99]
Трек  7  точность не определена (достоверность 1)  [FD81FB54], AccurateRip вернул [D4182A14]
Трек  8  точность не определена (достоверность 1)  [CB35EA07], AccurateRip вернул [CF115051]
 
Ни один трек не прошёл проверки на точность
В вашей базе может быть иной вариант штамповки диска
 
Конец отчёта
 
/////////////////////////////////////////////////////////////////////////////////////////////
 
-----------------------
 
DON'T MODIFY THIS FILE
 
-----------------------
 
PERFORMER: auCDtect Task Manager, ver. 1.6.0 RC1 build 1.6.0.1
Copyright (c) 2008-2010 y-soft. All rights reserved
http://y-soft.org
 
ANALYZER: auCDtect: CD records authenticity detector, version 0.8.2
Copyright (c) 2004 Oleg Berngardt. All rights reserved.
Copyright (c) 2004 Alexander Djourik. All rights reserved.
 
 
FILE: Supermax - Just before the nightmare.flac
  Size: 256717458 Hash: 0903869D382CB028D5A1EB49C5537DAF Accuracy: -m0
  Conclusion: MPEG 95%
  Signature: 4C42F1F2A84BD999B7D471F0E6254621252D1914
 
////////////////////////////////////////////////////////////////////////////////////////////////
 
foobar2000 1.2.5 / Dynamic Range Meter 1.1.1
log date: 2013-07-04 19:30:24
 
--------------------------------------------------------------------------------
Analyzed: Supermax / Just before the nightmare
--------------------------------------------------------------------------------
 
DR         Peak         RMS     Duration Track
--------------------------------------------------------------------------------
DR14       0.00 dB   -17.07 dB      4:44 01-Just before the nightmare
DR14       0.00 dB   -16.93 dB      5:07 02-Reggaesize
DR14       0.00 dB   -17.01 dB      4:45 03-We've got the rhythm
DR14       0.00 dB   -16.80 dB      5:11 04-Just a little bit more
DR13       0.00 dB   -16.46 dB      4:45 05-Goodtimes
DR13      -1.66 dB   -17.59 dB      4:12 06-Purple people
DR12       0.00 dB   -15.07 dB      6:57 07-Oi dibango
DR14       0.00 dB   -16.56 dB      3:52 08-People from the other side
--------------------------------------------------------------------------------
 
Number of tracks:  8
Official DR value: DR14
 
Samplerate:        44100 Hz
Channels:          2
Bits per sample:   16
Bitrate:           866 kbps
Codec:             FLAC
================================================================================
 
/////////////////////////////////////////////////////////////////////////////////////
 

Всего записей: 2461 | Зарегистр. 01-12-2009 | Отправлено: 09:34 07-07-2013
Открыть новую тему     Написать ответ в эту тему

На первую страницук этому сообщениюк последнему сообщению

Компьютерный форум Ru.Board » Общие » Музыка и Кино » Музыка в lossless форматах (часть 5)


Реклама на форуме Ru.Board.

Powered by Ikonboard "v2.1.7b" © 2000 Ikonboard.com
Modified by Ru.Board
© Ru.Board 2000-2020

BitCoin: 1NGG1chHtUvrtEqjeerQCKDMUi6S6CG4iC

Рейтинг.ru