Перейти из форума на сайт.

НовостиФайловые архивы
ПоискАктивные темыТоп лист
ПравилаКто в on-line?
Вход Забыли пароль? Первый раз на этом сайте? Регистрация
Компьютерный форум Ru.Board » Общие » Музыка и Кино » Музыка в lossless форматах (часть 5)

Модерирует : PrincesskaMarishka, ULer

 Версия для печати • ПодписатьсяДобавить в закладки
На первую страницук этому сообщениюк последнему сообщению

Открыть новую тему     Написать ответ в эту тему

AMPIRUTYUN



Silver Member
Редактировать | Профиль | Сообщение | Цитировать | Сообщить модератору
Exact Audio Copy V1.0 beta 3 from 29. August 2011
 
EAC extraction logfile from 11. April 2012, 23:47
 
Chicago / Chicago 17
 
Used drive  : Optiarc BD RW BD-5300S   Adapter: 3  ID: 0
 
Read mode               : Secure
Utilize accurate stream : Yes
Defeat audio cache      : Yes
Make use of C2 pointers : No
 
Read offset correction                      : 6
Overread into Lead-In and Lead-Out          : No
Fill up missing offset samples with silence : Yes
Delete leading and trailing silent blocks   : No
Null samples used in CRC calculations       : Yes
Used interface                              : Installed external ASPI interface
 
Used output format              : User Defined Encoder
Selected bitrate                : 1024 kBit/s
Quality                         : High
Add ID3 tag                     : No
Command line compressor         : C:\Program Files (x86)\Exact Audio Copy\Flac\flac.exe
Additional command line options : -8 -V -T "Date=%year%" -T "Genre=%genre%" -T "COMMENT=ripped by bvstudio®" %source%
 
 
TOC of the extracted CD
 
     Track |   Start  |  Length  | Start sector | End sector  
    ---------------------------------------------------------
        1  |  0:00.00 |  3:50.10 |         0    |    17259    
        2  |  3:50.10 |  4:12.59 |     17260    |    36218    
        3  |  8:02.69 |  4:45.21 |     36219    |    57614    
        4  | 12:48.15 |  3:55.49 |     57615    |    75288    
        5  | 16:43.64 |  4:29.26 |     75289    |    95489    
        6  | 21:13.15 |  4:18.49 |     95490    |   114888    
        7  | 25:31.64 |  3:49.32 |    114889    |   132095    
        8  | 29:21.21 |  3:37.71 |    132096    |   148441    
        9  | 32:59.17 |  4:12.46 |    148442    |   167387    
       10  | 37:11.63 |  4:16.02 |    167388    |   186589    
       11  | 41:27.65 |  3:58.05 |    186590    |   204444    
       12  | 45:25.70 |  3:50.74 |    204445    |   221768    
       13  | 49:16.69 |  3:52.51 |    221769    |   239219    
       14  | 53:09.45 |  4:33.39 |    239220    |   259733    
 
 
Range status and errors
 
Selected range
 
     Filename F:\Chicago - Chicago 17 - 1984 (Japan)\Chicago - Chicago 17.wav
 
     Peak level 100.0 %
     Extraction speed 8.7 X
     Range quality 99.9 %
     Test CRC 668F03F2
     Copy CRC 668F03F2
     Copy OK
 
No errors occurred
 
 
AccurateRip summary
 
Track  1  accurately ripped (confidence 1)  [9C825DB1]  (AR v1)
Track  2  accurately ripped (confidence 1)  [6BD1448C]  (AR v1)
Track  3  accurately ripped (confidence 1)  [60781D02]  (AR v1)
Track  4  accurately ripped (confidence 1)  [8144306A]  (AR v1)
Track  5  accurately ripped (confidence 1)  [6B221777]  (AR v1)
Track  6  accurately ripped (confidence 1)  [77A1BBD0]  (AR v1)
Track  7  accurately ripped (confidence 1)  [CB5C7696]  (AR v1)
Track  8  accurately ripped (confidence 1)  [63A8B553]  (AR v1)
Track  9  accurately ripped (confidence 1)  [9D8ADE7E]  (AR v1)
Track 10  accurately ripped (confidence 1)  [82709501]  (AR v1)
Track 11  accurately ripped (confidence 1)  [22B1AF9F]  (AR v1)
Track 12  accurately ripped (confidence 1)  [1D86C7B4]  (AR v1)
Track 13  accurately ripped (confidence 1)  [2F906709]  (AR v1)
Track 14  accurately ripped (confidence 1)  [252E81B2]  (AR v1)
 
All tracks accurately ripped
 
End of status report
 
==== Log checksum 79A2AD79347F434451B18FFB1653225B66FEB4189D8F86018E54F4CE3CEB4273 ====
 
/////////////////////////////////////////////////////////////////////////////////////////////////
 
-----------------------
 
DON'T MODIFY THIS FILE
 
-----------------------
 
PERFORMER: auCDtect Task Manager, ver. 1.6.0 RC1 build 1.6.0.1
Copyright (c) 2008-2010 y-soft. All rights reserved
http://y-soft.org
 
ANALYZER: auCDtect: CD records authenticity detector, version 0.8.2
Copyright (c) 2004 Oleg Berngardt. All rights reserved.
Copyright (c) 2004 Alexander Djourik. All rights reserved.
 
 
FILE: Chicago - Chicago 17.flac
  Size: 428149886 Hash: 8800DD98E3EEB388AD040543E671B844 Accuracy: -m0
  Conclusion: CDDA 100%
  Signature: 18D5D8470DBC4B6D71F069D573C221BE0BBC4332
 
/////////////////////////////////////////////////////////////////////////////////////////////
 
foobar2000 1.2.5 / Dynamic Range Meter 1.1.1
log date: 2013-07-02 15:17:07
 
--------------------------------------------------------------------------------
Analyzed: Chicago / Chicago 17
--------------------------------------------------------------------------------
 
DR         Peak         RMS     Duration Track
--------------------------------------------------------------------------------
DR8        0.00 dB    -9.53 dB      3:50 01-Stay The Night
DR7        0.00 dB    -8.59 dB      4:13 02-We Can Stop The Hurtin'
DR7        0.00 dB    -9.58 dB      4:45 03-Hard Habit To Break
DR8        0.00 dB    -9.24 dB      3:56 04-Only You
DR7        0.00 dB    -9.55 dB      4:29 05-Remember The Feeling
DR7        0.00 dB    -9.14 dB      4:19 06-Along Comes A Woman
DR8        0.00 dB    -9.99 dB      3:49 07-You're The Inspiration
DR8        0.00 dB    -9.89 dB      3:38 08-Please Hold On
DR7        0.00 dB    -8.06 dB      4:13 09-Prima Donna
DR8        0.00 dB    -9.08 dB      4:16 10-Once In A Lifetime
DR8       -0.10 dB    -9.47 dB      3:58 11-Where We Begin
DR9        0.00 dB   -10.00 dB      3:51 12-Only You (2010)
DR8        0.00 dB   -10.71 dB      3:53 13-You're The Inspiration (2010)
DR7        0.00 dB    -8.31 dB      4:34 14-Prima Donna (2010)
--------------------------------------------------------------------------------
 
Number of tracks:  14
Official DR value: DR8
 
Samplerate:        44100 Hz
Channels:          2
Bits per sample:   16
Bitrate:           989 kbps
Codec:             FLAC
================================================================================
 
//////////////////////////////////////////////////////////////////////////////////////////////
 

Всего записей: 2461 | Зарегистр. 01-12-2009 | Отправлено: 22:25 07-07-2013
Открыть новую тему     Написать ответ в эту тему

На первую страницук этому сообщениюк последнему сообщению

Компьютерный форум Ru.Board » Общие » Музыка и Кино » Музыка в lossless форматах (часть 5)


Реклама на форуме Ru.Board.

Powered by Ikonboard "v2.1.7b" © 2000 Ikonboard.com
Modified by Ru.Board
© Ru.Board 2000-2020

BitCoin: 1NGG1chHtUvrtEqjeerQCKDMUi6S6CG4iC

Рейтинг.ru