Перейти из форума на сайт.

НовостиФайловые архивы
ПоискАктивные темыТоп лист
ПравилаКто в on-line?
Вход Забыли пароль? Первый раз на этом сайте? Регистрация
Компьютерный форум Ru.Board » Компьютеры » Программы » Daum PotPlayer (часть 2)

Модерирует : gyra, Maz

batva (22-11-2011 15:20): Daum PotPlayer (часть 3)  Версия для печати • ПодписатьсяДобавить в закладки
Страницы: 1 2 3 4 5 6 7 8 9 10 11 12 13 14 15 16 17 18 19 20 21 22 23 24 25 26 27 28 29 30 31 32 33 34 35 36 37 38 39 40 41 42 43 44 45 46 47 48 49 50 51 52 53 54 55 56 57 58 59 60 61 62 63 64 65 66 67 68 69 70 71 72 73 74 75 76 77 78 79 80 81 82 83 84 85 86 87 88 89 90 91 92 93 94 95 96 97 98 99 100 101 102 103 104 105 106 107 108 109 110 111 112 113 114 115 116 117 118 119 120 121 122 123 124 125 126 127 128 129 130 131 132 133 134 135 136 137 138 139 140 141 142 143 144 145 146 147 148 149 150 151 152 153 154 155 156 157 158 159 160 161 162 163 164 165 166 167 168 169 170 171 172 173 174 175 176 177 178 179 180 181 182 183 184 185 186 187 188 189 190 191 192 193 194 195 196 197 198 199 200 201 202 203 204 205 206 207 208 209 210 211 212 213 214 215 216 217 218 219 220 221 222 223 224 225 226 227 228 229 230 231 232 233 234 235 236 237 238 239 240 241 242 243 244 245 246 247 248 249 250 251 252 253 254 255 256 257 258 259 260 261 262 263 264 265 266 267 268 269 270 271 272 273 274 275 276 277 278 279 280 281 282 283 284 285 286 287 288 289 290 291 292 293 294 295 296 297 298 299 300 301 302 303 304 305 306 307 308 309 310 311 312 313 314 315 316 317 318 319 320 321 322 323 324 325 326 327 328 329 330 331 332 333 334 335 336 337 338 339 340 341 342 343 344

   

Widok



Moderator-Следопыт
Редактировать | Профиль | Сообщение | Цитировать | Сообщить модератору

 
   
Обсуждение: часть 1

Основные функции и возможности плеера:
Высокое качество воспроизведения
Поддержка современных видео и аудио форматов, DVD
Наличие встроенных DXVA видео кодеков (H.264/AVC, VC-1, MPEG2)
Поддержка всех типов субтитров

 
Текущая версия 1.5.x - Что нового  |  англ. дистрибутивы/обновления  |  русификаторы  |  FAQ
 
----------------------------
Сборки от:   7sh3  |  XXXLer
Сборки от:   SamLab  
LiveCD|USB от:   conty9  |  qazwsxe
 
Отличия дистрибутивов и сборок
----------------------------
 
Голосование: Лучший плеер для видео 2011 года - PotPlayer                                               p

Всего записей: 24190 | Зарегистр. 07-04-2002 | Отправлено: 11:10 23-11-2010 | Исправлено: qazwsxe, 19:28 18-11-2011
7sh3

Platinum Member
Редактировать | Профиль | Сообщение | Цитировать | Сообщить модератору
qazwsxe
перекодировка 720p в 720p

Всего записей: 10255 | Зарегистр. 16-10-2005 | Отправлено: 00:27 27-03-2011
qazwsxe



Advanced Member
Редактировать | Профиль | Сообщение | Цитировать | Сообщить модератору
7sh3

Цитата:
перекодировка 720p в 720p

 
Ну это понятно, просто для 4 ядрёного проца как-то многовато.

Всего записей: 1544 | Зарегистр. 16-08-2008 | Отправлено: 00:29 27-03-2011
7sh3

Platinum Member
Редактировать | Профиль | Сообщение | Цитировать | Сообщить модератору
qazwsxe
процессором кодируется реалтайм 720p (1280x720) в h264, источник 720p декодируется аппаратно видеокартой

Цитата:
для 4 ядрёного проца как-то многовато.

для какого 4 ядрёного проца?

Всего записей: 10255 | Зарегистр. 16-10-2005 | Отправлено: 00:37 27-03-2011 | Исправлено: 7sh3, 00:40 27-03-2011
qazwsxe



Advanced Member
Редактировать | Профиль | Сообщение | Цитировать | Сообщить модератору

Цитата:
для какого 4 ядрёного проца?

 
У тебя в диспетчере указано, что проц 4-х ядерный и нагрузка на проц 41%, при том что процу помогает, перегонять видеокарта.

Всего записей: 1544 | Зарегистр. 16-08-2008 | Отправлено: 00:45 27-03-2011
7sh3

Platinum Member
Редактировать | Профиль | Сообщение | Цитировать | Сообщить модератору
qazwsxe

Цитата:
У тебя в диспетчере указано

я знаю что в диспетчере, я спрашиваю для какого 4 ядреного проца по твоему мнению многовато для подобного действия, 1 фена калечного , старого квада 6600, i7, sandy bridge...  я про проц на скрине ничего не говорил, в диспетчере может быть показано 4 ядра и на двуядерном проце, например в i3
запусти 1280x720 и сделай захват этого видео в h264, покажи скриншот где не многовато, и сколько вообще должно быть
 

Всего записей: 10255 | Зарегистр. 16-10-2005 | Отправлено: 01:50 27-03-2011 | Исправлено: 7sh3, 01:53 27-03-2011
XXXLer



Full Member
Редактировать | Профиль | Сообщение | Цитировать | Сообщить модератору
caligula73
выложите проблемное видео - так будет быстрее и проще

Всего записей: 467 | Зарегистр. 13-12-2006 | Отправлено: 03:25 27-03-2011
Violantius



Junior Member
Редактировать | Профиль | Сообщение | Цитировать | Сообщить модератору
Народ, у всех нормально воспроизводит MKV файлы? Сборка от conty9 Русифицированная (Kastaneda) CD-версия PotPlayer 1.5.27354 (х86)
Именно вот в каком случае. При запуске МКВ идет большой тормоз, сыпаться все начинает. Это если просто заменить все файлы от предыдущей сборки 27313 на 27354 кроме PotPlayerMini.ini. Я так всегда и делаю при выходе новой сборки от conty9. А тут бац и такой глюк. Но если перенести и сам PotPlayerMini.ini то глюк исчез. А это есть не очень гуд, так как настройки уже не под меня сделаны.  Раньше ведь такого не было.

Всего записей: 195 | Зарегистр. 12-03-2007 | Отправлено: 06:48 27-03-2011
NeoCat



Full Member
Редактировать | Профиль | Сообщение | Цитировать | Сообщить модератору
Violantius
аналогичная проблема

----------
gui4menc0 (GUI for MEncoder) - бесплатный конвертер видео файлов

Всего записей: 440 | Зарегистр. 05-02-2005 | Отправлено: 10:39 27-03-2011 | Исправлено: NeoCat, 10:40 27-03-2011
qazwsxe



Advanced Member
Редактировать | Профиль | Сообщение | Цитировать | Сообщить модератору
7sh3
 
Ну теперь понятно, что у вас
Цитата:
1 фена калечного
, тогда всё объясняет.  
Доказывать ничего не буду и спорить не вижу смысла.  
Я всего лишь в самом начале спросил за
Цитата:
А в DXVA какая нагрузка?
у меня просто интерес, как работает Bitstream в разных ATI-шных видюхах, насколько большая разница в вашем случае между Bitstream и DXVA.

Всего записей: 1544 | Зарегистр. 16-08-2008 | Отправлено: 10:58 27-03-2011
SamLab



Gold Member
Редактировать | Профиль | Сообщение | ICQ | Цитировать | Сообщить модератору

Цитата:
cyberlink ham там есть?

Я не использую платные - а вот из бесплатных все которые нужны для максимального покрытия форматов - есть

----------
SamLab.ws - Программы и русификаторы + SamForum.org - Софтовый форум + Мой твиттер

Всего записей: 6496 | Зарегистр. 15-07-2004 | Отправлено: 12:16 27-03-2011
caligula73



Silver Member
Редактировать | Профиль | Сообщение | Цитировать | Сообщить модератору
XXXLer
на вашей сборке вот это видео идёт  
 
General  
Complete name                    : F:\Clips\000 78.140.135.17-87319-.avi  
Format                           : AVI  
Format/Info                      : Audio Video Interleave  
File size                        : 42.9 MiB  
Duration                         : 3mn 34s  
Overall bit rate                 : 1 683 Kbps  
Writing library                  : VirtualDub-MPEG2 build 24600/release  
 
Video  
ID                               : 0  
Format                           : VP7  
Format profile                   : General  
Codec ID                         : VP70  
Codec ID/Hint                    : On2  
Duration                         : 3mn 34s  
Bit rate                         : 1 543 Kbps  
Width                            : 768 pixels  
Height                           : 383 pixels  
Display aspect ratio             : 2.005  
Frame rate                       : 25.000 fps  
Bits/(Pixel*Frame)               : 0.210  
Stream size                      : 39.4 MiB (92%)  
 
Audio  
ID                               : 1  
Format                           : MPEG Audio  
Format version                   : Version 1  
Format profile                   : Layer 3  
Mode                             : Joint stereo  
Codec ID                         : 55  
Codec ID/Hint                    : MP3  
Duration                         : 3mn 33s  
Bit rate mode                    : Variable  
Bit rate                         : 128 Kbps  
Channel(s)                       : 2 channels  
Sampling rate                    : 48.0 KHz  
Compression mode                 : Lossy  
Stream size                      : 3.30 MiB (8%)  
Alignment                        : Split accross interleaves  
Interleave, duration             : 37 ms (0.93 video frame)  
Interleave, preload duration     : 525 ms
 
проблема заключается в том что когда пользуешься перемоткой может возникнуть рассинхрон или вообще плеер вылетает с ошибкой ,  
вчера при просмотре вот этого на перемотке
 
Format                           : Windows Media
File size                        : 652 MiB
Duration                         : 28mn 55s
Overall bit rate mode            : Constant
Overall bit rate                 : 3 153 Kbps
Maximum Overall bit rate         : 3 173 Kbps
Encoded date                     : UTC 2010-10-04 13:28:02.513
SfOriginalFPS                    : 250000
 
Video
ID                               : 2
Format                           : VC-1
Format profile                   : MP@HL
Codec ID                         : WMV3
Codec ID/Info                    : Windows Media Video 9
Codec ID/Hint                    : WMV3
Description of the codec         : Windows Media Video 9 - Professional
Duration                         : 28mn 55s
Bit rate mode                    : Constant
Bit rate                         : 2 954 Kbps
Width                            : 1 280 pixels
Height                           : 720 pixels
Display aspect ratio             : 16:9
Frame rate                       : 25.000 fps
Bit depth                        : 8 bits
Scan type                        : Progressive
Compression mode                 : Lossy
Bits/(Pixel*Frame)               : 0.128
Stream size                      : 611 MiB (94%)
Language                         : Czech
 
Audio
ID                               : 1
Format                           : WMA
Format version                   : Version 2
Codec ID                         : 161
Codec ID/Info                    : Windows Media Audio
Description of the codec         : Windows Media Audio 9.2 - 192 kbps, 48 kHz, stereo (A/V) 1-pass CBR
Duration                         : 28mn 55s
Bit rate mode                    : Constant
Bit rate                         : 192 Kbps
Channel(s)                       : 2 channels
Sampling rate                    : 48.0 KHz
Bit depth                        : 16 bits
Stream size                      : 39.7 MiB (6%)
Language                         : Czech  
 
видеокарта стала быстро нагреватся(увеличил обороты кулер на карте) , а потом вообще погас экран, помог только reset компа.
видеокарта 8800GTS 320x320 тесты проходит, в игры играет без проблем . драйвера самые последние.
 
и ещё такое пожелание когда будешь делать новую сборку ,сделай шаг перемотки как в оригинале (не 15секунд как сейчас. сделай меньше -- 1-5сек)
 
Добавлено:
SamLab

Цитата:
Я не использую платные - а вот из бесплатных все которые нужны для максимального покрытия форматов - есть

и свой windows наверно вы официально покупали!?
требуется не максимальное покрытие форматов(то видео что выше непоказывает на ваших новых сборках) , а максимальное качество картинки!

Всего записей: 2212 | Зарегистр. 30-09-2008 | Отправлено: 12:25 27-03-2011 | Исправлено: caligula73, 13:17 27-03-2011
sanatoliy



Advanced Member
Редактировать | Профиль | Сообщение | Цитировать | Сообщить модератору
как и где найти хороший плагин или кодек, чтобы можно смотреть формат .wmv

Всего записей: 1756 | Зарегистр. 08-06-2003 | Отправлено: 13:23 27-03-2011
SamLab



Gold Member
Редактировать | Профиль | Сообщение | ICQ | Цитировать | Сообщить модератору

Цитата:
и свой windows наверно вы официально покупали!?

И не только Windows - у меня около десятка программ куплено (office/winrar/total/acronis/ultraiso/vit/zwcad и др.), а остальные фри - ни одной варезной нет
 
Какой из двух выше файлов не открывается и в какой версии x86 или x64? Ну а про качество как раз из-за него заменил Haali на LAVF

----------
SamLab.ws - Программы и русификаторы + SamForum.org - Софтовый форум + Мой твиттер

Всего записей: 6496 | Зарегистр. 15-07-2004 | Отправлено: 13:29 27-03-2011 | Исправлено: SamLab, 13:37 27-03-2011
embrace909



Silver Member
Редактировать | Профиль | Сообщение | Цитировать | Сообщить модератору
sanatoliy

Цитата:
как и где найти хороший плагин или кодек, чтобы можно смотреть формат .wmv

Лови:
 
x32
http://sourceforge.net/projects/mpc-hc/files/Standalone%20Filters%20-%20Win32/Filters%20v1.5.0.2827%20_%2032%20bits/MPC-Standalone%20Filters.1.5.0.2827.x86.7z/download
 
x64
http://sourceforge.net/projects/mpc-hc/files/Standalone%20Filters%20-%20x64/Filters%20v1.5.0.2827%20_%2064%20bits/MPC-Standalone%20Filters.1.5.0.2827.x64.7z/download
 
В настройках управления кодеками выбираешь внешний кодек MPCVideoDec.ax и по желанию MpaDecFilter.ax для аудио и Mpeg2DecFilter.ax для DVD, далее в видеокодеках для WMV1/2/3/VC1 переключаешь на MPC - Video Decoder, а в исходных фильтрах для ASF - исходный фильтр Windows Media.  
 
Я так например для всех форматов поставил MPC - Audio/Video Decoder - всё-таки он покачественнее чем FFmpeg поставляемый с PotPlayer.

Всего записей: 3920 | Зарегистр. 03-03-2006 | Отправлено: 13:36 27-03-2011 | Исправлено: embrace909, 14:35 27-03-2011
caligula73



Silver Member
Редактировать | Профиль | Сообщение | Цитировать | Сообщить модератору
SamLab

Цитата:
Какой из двух выше файлов не открывается и в какой версии x86 или x64?


Цитата:
General  
Complete name                    : F:\Clips\000 78.140.135.17-87319-.avi  
Format                           : AVI  
Format/Info                      : Audio Video Interleave  
File size                        : 42.9 MiB  
Duration                         : 3mn 34s  
Overall bit rate                 : 1 683 Kbps  
Writing library                  : VirtualDub-MPEG2 build 24600/release  
   
Video  
ID                               : 0  
Format                           : VP7  
Format profile                   : General  
Codec ID                         : VP70  
Codec ID/Hint                    : On2  
Duration                         : 3mn 34s  
Bit rate                         : 1 543 Kbps  
Width                            : 768 pixels  
Height                           : 383 pixels  
Display aspect ratio             : 2.005  
Frame rate                       : 25.000 fps  
Bits/(Pixel*Frame)               : 0.210  
Stream size                      : 39.4 MiB (92%)  
   
Audio  
ID                               : 1  
Format                           : MPEG Audio  
Format version                   : Version 1  
Format profile                   : Layer 3  
Mode                             : Joint stereo  
Codec ID                         : 55  
Codec ID/Hint                    : MP3  
Duration                         : 3mn 33s  
Bit rate mode                    : Variable  
Bit rate                         : 128 Kbps  
Channel(s)                       : 2 channels  
Sampling rate                    : 48.0 KHz  
Compression mode                 : Lossy  
Stream size                      : 3.30 MiB (8%)  
Alignment                        : Split accross interleaves  
Interleave, duration             : 37 ms (0.93 video frame)  
Interleave, preload duration     : 525 ms  

 
1 нет видео
2 ставил x64
3 моя система win 7x64 + q9400 + 4gb оперативки + 8800GTS 320x320 + Creative Audigy2 ZS (SB0350)оригинальные дрова

Всего записей: 2212 | Зарегистр. 30-09-2008 | Отправлено: 13:47 27-03-2011 | Исправлено: caligula73, 13:52 27-03-2011
SamLab



Gold Member
Редактировать | Профиль | Сообщение | ICQ | Цитировать | Сообщить модератору
caligula73
Про это уже писали - VP7 декодера нет для x64 - только для x86 и соответственно плееры x86 версий будут открывать этот файл

----------
SamLab.ws - Программы и русификаторы + SamForum.org - Софтовый форум + Мой твиттер

Всего записей: 6496 | Зарегистр. 15-07-2004 | Отправлено: 14:00 27-03-2011 | Исправлено: SamLab, 14:01 27-03-2011
XXXLer



Full Member
Редактировать | Профиль | Сообщение | Цитировать | Сообщить модератору
-del-

Всего записей: 467 | Зарегистр. 13-12-2006 | Отправлено: 14:32 27-03-2011 | Исправлено: XXXLer, 17:29 27-03-2011
7sh3

Platinum Member
Редактировать | Профиль | Сообщение | Цитировать | Сообщить модератору
qazwsxe

Цитата:
тогда всё объясняет.  

да ничего не объясняет вот если бы сразу спросил какой на скрине процессор, а то какой-то абстрактный четырехядерный на скрине athlon x4 640, загрузка такого процессора при кодировании h264 720p нормальная

Цитата:
А в DXVA какая нагрузка?

с dxva подобное действие с перекодировкой сделать нельзя, а при софтовом декоде и кодировании в реалтайме этот процессор попросту загнется
 
embrace909

Цитата:
Лови:

шило на мыло, в плеере используется тоже самое - ffmpeg, причем в mpc-hc реализации есть пару мелких проблем с wmv, в соседней ветке два дня назад про это было
 
sanatoliy

Цитата:
формат .wmv

wmv - контейнер, в нем видео в форматах wmv1 wmv2 wmv3 wvс1, c каким именно форматом проблемы? все можно посмотреть в mediainfo
 

Всего записей: 10255 | Зарегистр. 16-10-2005 | Отправлено: 14:32 27-03-2011 | Исправлено: 7sh3, 14:34 27-03-2011
embrace909



Silver Member
Редактировать | Профиль | Сообщение | Цитировать | Сообщить модератору

Цитата:
шило на мыло, в плеере используется тоже самое - ffmpeg

Неа, ffmpeg только для H.264 и VC1, не более. Я тестировал на 1 и том же файле - ffmeg из pot wmv квадратит а некотрые черный экран, а в MPC - Video Decoder - всё гладко. Также и любой Mpeg2 при перемотке квадратит только со встроенным кодеком.

Всего записей: 3920 | Зарегистр. 03-03-2006 | Отправлено: 14:39 27-03-2011
ibumbre



Member
Редактировать | Профиль | Сообщение | Цитировать | Сообщить модератору
судя по последним страницам, не всё так гладко с этими сборками
уважаемый 7sh3, когда же будет ваш вариант?  

Всего записей: 398 | Зарегистр. 09-02-2009 | Отправлено: 14:43 27-03-2011 | Исправлено: ibumbre, 14:45 27-03-2011
   

Страницы: 1 2 3 4 5 6 7 8 9 10 11 12 13 14 15 16 17 18 19 20 21 22 23 24 25 26 27 28 29 30 31 32 33 34 35 36 37 38 39 40 41 42 43 44 45 46 47 48 49 50 51 52 53 54 55 56 57 58 59 60 61 62 63 64 65 66 67 68 69 70 71 72 73 74 75 76 77 78 79 80 81 82 83 84 85 86 87 88 89 90 91 92 93 94 95 96 97 98 99 100 101 102 103 104 105 106 107 108 109 110 111 112 113 114 115 116 117 118 119 120 121 122 123 124 125 126 127 128 129 130 131 132 133 134 135 136 137 138 139 140 141 142 143 144 145 146 147 148 149 150 151 152 153 154 155 156 157 158 159 160 161 162 163 164 165 166 167 168 169 170 171 172 173 174 175 176 177 178 179 180 181 182 183 184 185 186 187 188 189 190 191 192 193 194 195 196 197 198 199 200 201 202 203 204 205 206 207 208 209 210 211 212 213 214 215 216 217 218 219 220 221 222 223 224 225 226 227 228 229 230 231 232 233 234 235 236 237 238 239 240 241 242 243 244 245 246 247 248 249 250 251 252 253 254 255 256 257 258 259 260 261 262 263 264 265 266 267 268 269 270 271 272 273 274 275 276 277 278 279 280 281 282 283 284 285 286 287 288 289 290 291 292 293 294 295 296 297 298 299 300 301 302 303 304 305 306 307 308 309 310 311 312 313 314 315 316 317 318 319 320 321 322 323 324 325 326 327 328 329 330 331 332 333 334 335 336 337 338 339 340 341 342 343 344

Компьютерный форум Ru.Board » Компьютеры » Программы » Daum PotPlayer (часть 2)
batva (22-11-2011 15:20): Daum PotPlayer (часть 3)


Реклама на форуме Ru.Board.

Powered by Ikonboard "v2.1.7b" © 2000 Ikonboard.com
Modified by Ru.Board
© Ru.Board 2000-2018

BitCoin: 1NGG1chHtUvrtEqjeerQCKDMUi6S6CG4iC

Рейтинг.ru