Перейти из форума на сайт.

НовостиФайловые архивы
ПоискАктивные темыТоп лист
ПравилаКто в on-line?
Вход Забыли пароль? Первый раз на этом сайте? Регистрация
Компьютерный форум Ru.Board » Компьютеры » Программы » Daum PotPlayer (часть 9)

Модерирует : gyra, Maz

 Версия для печати • ПодписатьсяДобавить в закладки
Страницы: 1 2 3 4 5 6 7 8 9 10 11 12 13 14 15 16 17 18 19 20 21 22 23 24 25 26 27 28 29 30 31 32 33 34 35 36 37 38 39 40 41 42 43 44 45 46 47 48 49 50 51 52 53 54 55 56 57 58 59 60 61 62 63 64 65 66 67 68 69 70 71 72 73 74 75 76 77 78 79 80 81 82 83 84 85 86 87 88 89 90 91 92 93 94 95 96 97 98 99 100 101 102 103 104 105 106 107 108 109 110 111 112 113 114 115 116 117 118 119 120 121 122 123 124 125 126 127 128 129 130 131 132 133 134 135 136 137 138 139 140 141 142 143 144 145 146 147 148 149 150 151 152 153 154 155 156 157 158 159 160 161 162 163 164 165 166 167 168 169 170 171 172 173

Открыть новую тему     Написать ответ в эту тему

Maz



Дед Мазай
Редактировать | Профиль | Сообщение | Цитировать | Сообщить модератору
Прошлые части темы

Основные функции и возможности плеера:
Высокое качество воспроизведения
Поддержка современных видео и аудио форматов, DVD, Blu-ray (без меню), 3D видео (+MVC), Шейдеры, Захват видео и аудио...
Наличие встроенных аппаратных декодеров DXVA, Intel QuickSync, Nvidia CUDA (H.264/AVC, H.265/HEVC*, WVC1, WMV3, MPEG2, MPEG4)
Поддержка всех типов субтитров

Системные требования

 
  • Актуальные версии с adware (рекламным ПО):
        PotPlayer 210318 (1.7.21472):  32-bit | 64-bit
        PotPlayer 21MMDD (1.7.xxxx) Beta:  64-bit | инфо
         
        Международный сайт *  | Корейский  сайт  |  VideoHelp.com  
        Что нового  |  Русификаторы  |  Сочетания клавиш  |  Параметры командной строки
        FAQ  |  Инструкции  |  FAQ о рекламе и всплывающем окне  |  Дополнительно
        --  --  --  --  --
         Если что-то не работает  |  Баг-репорт    
        --  --  --  --  --
  • Сборки проигрывателя от:
        7sh3  |  Lisbon  |  SamLab
        --  --  --  --  --
  • Архив версий на сайтах:
        cafe.daum.net  |  VideoHelp.com
        --  --  --  --  --
  • Программы, расширения и другие дополнения:
        Ссылки на программы и модули  |  Ссылки на расширения (Extension)  |  Иконки
        --  --  --  --  --
  • Скины от:
        De2monNik  |  7sh3 |  nyafnyaf  |  PotXMP  |  caligula73  |  Victor_Dobrov  |  nEA2016  |  westlife  


  • Всего записей: 37092 | Зарегистр. 26-02-2002 | Отправлено: 13:17 15-04-2020 | Исправлено: AlexDAT, 21:17 02-04-2021
    7sh3

    Platinum Member
    Редактировать | Профиль | Сообщение | Цитировать | Сообщить модератору
    viktor516

    Цитата:
    есть выбор 6 вариантов CPU

    Cpu и Gpu это разные буквы
    и ведь даже в шести есть разделение на 123 123
    и даже в этом окне на скриншоте можно выбирать из 123 cpu и 123 gpu

    Всего записей: 12155 | Зарегистр. 16-10-2005 | Отправлено: 16:11 20-05-2020 | Исправлено: 7sh3, 16:17 20-05-2020
    viktor516



    Member
    Редактировать | Профиль | Сообщение | Цитировать | Сообщить модератору
    7sh3 , Спасибо дошло !  
    А как влияют варианты 1-Low. 2-Medium. 3-High на качество картинки ?
    Видимо High - самое высокое качество

    Всего записей: 223 | Зарегистр. 19-08-2007 | Отправлено: 16:21 20-05-2020
    7sh3

    Platinum Member
    Редактировать | Профиль | Сообщение | Цитировать | Сообщить модератору
    viktor516

    Цитата:
    Видимо High - самое высокое качество

    ну не то чтобы самое высокое которое может быть, можно сказать - достаточное качество чтобы работало не напрягаясь на минимум 4-ёх ядрах среднестатистического цп с видео до 1080 включительно, как то так в общем...

    Всего записей: 12155 | Зарегистр. 16-10-2005 | Отправлено: 16:32 20-05-2020 | Исправлено: 7sh3, 16:34 20-05-2020
    viktor516



    Member
    Редактировать | Профиль | Сообщение | Цитировать | Сообщить модератору
    7sh3 да, кажется Вы оказались правы. 10-битное 4К при нагрузке проца до 90% выдаётся 40-50fps максимум.
    8-битное 4К выдаёт идёт 60fps, но при этом звук заметно отстаёт. Я видео карту не использую. Кажется её установка и запуск видеопотока через неё на результат не повлияет.  
    Есть мнение, что видяха нужна для обсчёта 3D графики в играх, а при воспроизведении видео контента она не участвует.  
    Если не сложно напишите, как вы считаете/знаете – какой проц без проблем может поднимать 10-битное 4К до 60fps в варианте High и не ошибочна ли инфа про видеокарты, как я написал ?  
    Буду признателен за ответ.

    Всего записей: 223 | Зарегистр. 19-08-2007 | Отправлено: 17:11 20-05-2020 | Исправлено: viktor516, 17:13 20-05-2020
    syndicate3

    Silver Member
    Редактировать | Профиль | Сообщение | Цитировать | Сообщить модератору

    Цитата:
    Я видео карту не использую. Кажется её установка и запуск видеопотока через неё на результат не повлияет.

    Включать прессет уплавления который называется gpu и не использовать видеокарту.

    Цитата:
    а при воспроизведении видео контента она не участвует.  

    Фантазер ты меня называла

    Цитата:
    какой проц без проблем может поднимать 10-битное 4К до 60fps в варианте High

     
    Не все карты могут 10бит 4k декодировать, а вы про процессор говорите. Но думаю, для i9-9900k это не проблема

    Всего записей: 2104 | Зарегистр. 19-11-2017 | Отправлено: 17:20 20-05-2020 | Исправлено: syndicate3, 17:24 20-05-2020
    viktor516



    Member
    Редактировать | Профиль | Сообщение | Цитировать | Сообщить модератору
    syndicate3 , спасибо за ответ.  
    Если менять проц на i9-9900k  то потребует замены материнки соответственно…  
    Пожет посоветуете видяху, которая в связке с I7-7700K без проблем осилит 10-битное 4К до 60fps ?

    Всего записей: 223 | Зарегистр. 19-08-2007 | Отправлено: 17:40 20-05-2020
    syndicate3

    Silver Member
    Редактировать | Профиль | Сообщение | Цитировать | Сообщить модератору

    Цитата:
    которая в связке с I7-7700K без проблем осилит 10-битное 4К до 60fps

    если без svp то карта типо gtx 1650/1660 super
    если нужно svp и кадры по частоте мониторе 75,144 то gtx 2060,2070 без проблем справяться.

    Всего записей: 2104 | Зарегистр. 19-11-2017 | Отправлено: 17:46 20-05-2020 | Исправлено: syndicate3, 17:47 20-05-2020
    V0lt



    Gold Member
    Редактировать | Профиль | Сообщение | Цитировать | Сообщить модератору
    viktor516

    Цитата:
    Пожет посоветуете видяху, которая в связке с I7-7700K без проблем осилит 10-битное 4К до 60fps ?

    GT 1030 GDDR5 вытянет как HEVC, так и VP9.

    Всего записей: 9098 | Зарегистр. 05-02-2003 | Отправлено: 17:50 20-05-2020
    viktor516



    Member
    Редактировать | Профиль | Сообщение | Цитировать | Сообщить модератору
    Всем спасибо за ответы !




    Все благодарности в ПМ

    Всего записей: 223 | Зарегистр. 19-08-2007 | Отправлено: 17:56 20-05-2020 | Исправлено: gyra, 18:12 20-05-2020
    7sh3

    Platinum Member
    Редактировать | Профиль | Сообщение | Цитировать | Сообщить модератору
    viktor516
    собственно сейчас то какая видеокарта, встройка в цп?
    скринштот покажите вот такой же что там происходит при воспроизведении 1080 с включенным svp gpu-3-high (инфа на экране клавиша tab)

    Всего записей: 12155 | Зарегистр. 16-10-2005 | Отправлено: 18:27 20-05-2020 | Исправлено: 7sh3, 18:35 20-05-2020
    viktor516



    Member
    Редактировать | Профиль | Сообщение | Цитировать | Сообщить модератору
    Видео  
    Идентификатор : 1  
    Формат : HEVC  
    Формат/Информация : High Efficiency Video Coding  
    Профиль формата : Main 10@L4.1@High  
    Идентификатор кодека : V_MPEGH/ISO/HEVC  
    Продолжительность : 1 ч. 45 м.  
    Битрейт : 6 312 Кбит/сек  
    Ширина : 1 920 пикселей  
    Высота : 784 пикселя  
    Соотношение сторон : 2,40:1  
    Режим частоты кадров : Постоянный  
    Частота кадров : 23,976 (24000/1001) кадра/сек  
    Цветовое пространство : YUV  
    Субдискретизация насыщенности : 4:2:0  
    Битовая глубина : 10 бит  
    Бит/(Пиксели*Кадры) : 0.175  
    Размер потока : 4,67 Гбайт (85%)  
    Заголовок : Рип от Мичмана  
    Библиотека кодирования : x265 3.1+7-147fb92c5ed5:[Windows][clang 8.0.0][64 bit] 10bit  
     
     

    Всего записей: 223 | Зарегистр. 19-08-2007 | Отправлено: 18:56 20-05-2020
    7sh3

    Platinum Member
    Редактировать | Профиль | Сообщение | Цитировать | Сообщить модератору
    viktor516
    цп своей встройкой и сейчас может крутить без проблем нативные 60 10-бит 4k с аппаратным декодом (dxva native)
    а вот для работы svp - уплавнения до 60 4k не подходит уже сам цп, внешняя видеокарта это не исправит, текущего цп хватит только для уплавнения 2k  
     
    ну или можно уменьшать размер кадра 4k до 1080 чтобы работал svp, только зачем тогда качать 4k)

    Всего записей: 12155 | Зарегистр. 16-10-2005 | Отправлено: 19:55 20-05-2020 | Исправлено: 7sh3, 20:03 20-05-2020
    viktor516



    Member
    Редактировать | Профиль | Сообщение | Цитировать | Сообщить модератору

    Цитата:
      7sh3....внешняя видеокарта это не исправит,

    Это окончательный диагноз ? чЁт камрады выше писали противоположное ((  
     

    Цитата:
    цп своей встройкой и сейчас может крутить без проблем нативные 60 10-бит 4k с аппаратным декодом (dxva native)

     И куда нужно жимкнуть чтоб включить этот dxva native ? ...это скрин настроек плеера у Вас ?
    PS уменьшать размер картинки - это не по нашему

    Всего записей: 223 | Зарегистр. 19-08-2007 | Отправлено: 20:18 20-05-2020 | Исправлено: viktor516, 20:22 20-05-2020
    7sh3

    Platinum Member
    Редактировать | Профиль | Сообщение | Цитировать | Сообщить модератору
    viktor516

    Цитата:
    чЁт камрады выше писали противоположное

    они не знали про встройку uhd630, инфы изначально не было )

    Цитата:
    И куда нужно жимкнуть чтоб включить этот dxva native ?

    сейчас включен аппаратный декод dxva copyback, ctrl+f кнопка встроенные видео декодеры выключить copyback
    svp разумеется никак не будет работать, это только чтобы посмотреть как тянет встройкой нативный 60 4k видос, загрузка цп там минимальная должна быть

    Цитата:
    ...это скрин настроек плеера у Вас ? PS уменьшать размер картинки - это не по нашему  

    монитор то все равно 1080, 4k видео и так уменьшается до размера монитора, с этой настройкой кадр будет уменьшаться до рендера (благодаря чему будет тянуть svp), а не в самом рендере как сейчас, вот и вся разница )

    Всего записей: 12155 | Зарегистр. 16-10-2005 | Отправлено: 20:44 20-05-2020 | Исправлено: 7sh3, 20:46 20-05-2020
    viktor516



    Member
    Редактировать | Профиль | Сообщение | Цитировать | Сообщить модератору

    Цитата:
    монитор то все равно 1080

    .....это монитор. А вообще кино я вывожу по кабелю HDMI 2.0 на телек 4К

    Всего записей: 223 | Зарегистр. 19-08-2007 | Отправлено: 20:48 20-05-2020
    7sh3

    Platinum Member
    Редактировать | Профиль | Сообщение | Цитировать | Сообщить модератору
    viktor516

    Цитата:
    ....это монитор. А вообще кино я вывожу по кабелю HDMI 2.0 на телек 4К  

    ну тогда цп где минимум 6 настоящих ядер чтобы с svp 4k крутить, i7-8700 etc.
    i7-7700 это еще было в процессе недопонимания как их нагнули amd, думали что и дальше так сойдет 4 ядра 10 лет продавать )

    Всего записей: 12155 | Зарегистр. 16-10-2005 | Отправлено: 21:04 20-05-2020
    viktor516



    Member
    Редактировать | Профиль | Сообщение | Цитировать | Сообщить модератору
    ЕСТЬ ТАКОЕ НАБЛЮДЕНИЕ: видео с исходными HEVC 2160p 4K 60fps 10bit (данные ниже) идёт на моём железе с тормозами как через  Daum PotPlayer так и KMPlayer с тормозами.  
    А вот VLC media player этим не страдает. Правда сколько кадров он выдаёт фактически - посмотреть не знаю как  
     
    Видео  
    Идентификатор : 1  
    Формат : HEVC  
    Формат/Информация : High Efficiency Video Coding  
    Профиль формата : Main 10@L5.1@High  
    HDR format : SMPTE ST 2086, HDR10 compatible  
    Идентификатор кодека : V_MPEGH/ISO/HEVC  
    Продолжительность : 1 ч. 52 м.  
    Битрейт : 86,4 Мбит/сек  
    Ширина : 3 840 пикселей  
    Высота : 2 160 пикселей  
    Соотношение сторон : 16:9  
    Режим частоты кадров : Постоянный  
    Частота кадров : 59,940 (60000/1001) кадров/сек  
    Цветовое пространство : YUV  
    Субдискретизация насыщенности : 4:2:0 (Type 2)  
    Битовая глубина : 10 бит  
    Бит/(Пиксели*Кадры) : 0.174  
    Размер потока : 68,1 Гбайт (95%)  
    Заголовок : BILLY_LYNS_LHW_UHD_HDR_RMX-BLUEBIRD  
    Default : Да  
    Forced : Нет  
    Цветовой диапазон : Limited  
    Основные цвета : BT.2020  
    Характеристики трансфера : PQ  
    Коэффициенты матрицы : BT.2020 non-constant  
    Mastering display color primaries : Display P3  
    Mastering display luminance : min: 0.0050 cd/m2, max: 4000 cd/m2  
    Maximum Content Light Level : 2086 cd/m2  
    Maximum Frame-Average Light Level : 997 cd/m2  

    Всего записей: 223 | Зарегистр. 19-08-2007 | Отправлено: 21:47 20-05-2020 | Исправлено: viktor516, 21:48 20-05-2020
    7sh3

    Platinum Member
    Редактировать | Профиль | Сообщение | Цитировать | Сообщить модератору
    viktor516

    Цитата:
    видео с исходными HEVC 2160p 4K 60fps 10bit (данные ниже) идёт на моём железе с тормозами через  Daum PotPlayer

    при условии - ctrl+f кнопка встроенные видео декодеры выключить copyback? скриншотик с инфой можно?

    Всего записей: 12155 | Зарегистр. 16-10-2005 | Отправлено: 21:56 20-05-2020 | Исправлено: 7sh3, 21:57 20-05-2020
    viktor516



    Member
    Редактировать | Профиль | Сообщение | Цитировать | Сообщить модератору


    Всего записей: 223 | Зарегистр. 19-08-2007 | Отправлено: 22:21 20-05-2020 | Исправлено: viktor516, 22:26 20-05-2020
    7sh3

    Platinum Member
    Редактировать | Профиль | Сообщение | Цитировать | Сообщить модератору
    viktor516
    я не понимаю что может быть непонятного в ctrl+f - кнопка встроенные видео декодеры - выключить copyback причем здесь вкладка обработка, кто просил сам аппаратный декод выключить (кнопку gpu), в общем не понимаю )
     
    пс
    с другой стороны видно, что i7-7700 не хватает для просто софтового декода 4k 60

    Всего записей: 12155 | Зарегистр. 16-10-2005 | Отправлено: 22:38 20-05-2020
    Открыть новую тему     Написать ответ в эту тему

    Страницы: 1 2 3 4 5 6 7 8 9 10 11 12 13 14 15 16 17 18 19 20 21 22 23 24 25 26 27 28 29 30 31 32 33 34 35 36 37 38 39 40 41 42 43 44 45 46 47 48 49 50 51 52 53 54 55 56 57 58 59 60 61 62 63 64 65 66 67 68 69 70 71 72 73 74 75 76 77 78 79 80 81 82 83 84 85 86 87 88 89 90 91 92 93 94 95 96 97 98 99 100 101 102 103 104 105 106 107 108 109 110 111 112 113 114 115 116 117 118 119 120 121 122 123 124 125 126 127 128 129 130 131 132 133 134 135 136 137 138 139 140 141 142 143 144 145 146 147 148 149 150 151 152 153 154 155 156 157 158 159 160 161 162 163 164 165 166 167 168 169 170 171 172 173

    Компьютерный форум Ru.Board » Компьютеры » Программы » Daum PotPlayer (часть 9)


    Реклама на форуме Ru.Board.

    Powered by Ikonboard "v2.1.7b" © 2000 Ikonboard.com
    Modified by Ru.Board
    © Ru.Board 2000-2020

    BitCoin: 1NGG1chHtUvrtEqjeerQCKDMUi6S6CG4iC

    Рейтинг.ru